Loading...
Error
 
Мини-чат
 

Скачать торрент Enigma (clips) [2007-2011, New Age, Relax, Meditative & Flamenco, DVDRip]

 
Автор Сообщение

falco

post 27-Ноя-12 18:49

pic
pic

Год производства: 2007-2011
Страна: USA
Жанр: New Age, Relax, Meditative & Flamenco
Продолжительность: 01:17:07
Описание:
Сборник клипов Энигмы.

Мне снилось, будто небо предо мною,
И звезды в серебристой глубине
Струили свет и поглощались мглою,
Я был влеком загадкой их во тьме.
Я слышал, как поет весенний ветер,
Парил над бесконечной синевой,
И не было прекраснее на свете
Дороги между небом и землей....

Качество видео: DVDRip
Формат видео: mp4
Видео кодек: H264
Аудио кодек: AAC
Видео: MPEG4 Video (H264) 1280x720 29.97fps ~2030kbps 0.088Bits/Pixel
Аудио: AAC 44100Hz stereo ~130kbps
Треклист
01. Page of Cups
02. Age of Loneliness (Jam & Spoon Remix)
03. From East to West
04. Gravity of Love
05. I Love You ... I'll Kill You
06. Mea Culpa (Fading Shades)
07. Mea Culpa
08. MMX The Social (New Song 2011)
09. Principles of Lust
10. Sadeness
11. Sensing The Spheres
12. The Social Song
13. TNT for the Brain
14. Twelve After Midnight
15. Beautiful Nature- Chill out music

Скриншоты

Mediainfo

Код:

General
Complete name                            : D:\Торенты\Enigma(clips)\Enigma - Sadeness.mp4
Format                                   : MPEG-4
Format profile                           : Base Media / Version 2
Codec ID                                 : mp42
File size                                : 63.6 MiB
Duration                                 : 4mn 5s
Overall bit rate mode                    : Variable
Overall bit rate                         : 2 173 Kbps
Encoded date                             : UTC 2010-07-20 01:25:30
Tagged date                              : UTC 2010-07-20 01:25:30
gsst                                     : 0
gstd                                     : 245991
gssd                                     : BADC213C5MH1353853496295264
gshh                                     : r18---sn-4g57lne6.c.youtube.com

Video
ID                                       : 2
Format                                   : AVC
Format/Info                              : Advanced Video Codec
Format profile                           : [email protected]
Format settings, CABAC                   : Yes
Format settings, ReFrames                : 1 frame
Format settings, GOP                     : M=1, N=30
Codec ID                                 : avc1
Codec ID/Info                            : Advanced Video Coding
Duration                                 : 4mn 5s
Bit rate                                 : 2 036 Kbps
Maximum bit rate                         : 6 059 Kbps
Width                                    : 1 280 pixels
Height                                   : 720 pixels
Display aspect ratio                     : 16:9
Frame rate mode                          : Constant
Frame rate                               : 25.000 fps
Color space                              : YUV
Chroma subsampling                       : 4:2:0
Bit depth                                : 8 bits
Scan type                                : Progressive
Bits/(Pixel*Frame)                       : 0.088
Stream size                              : 59.6 MiB (94%)
Title                                    : (C) 2007 Google Inc. v08.13.2007.
Encoded date                             : UTC 2010-07-20 01:25:30
Tagged date                              : UTC 2010-07-20 01:25:31

Audio
ID                                       : 1
Format                                   : AAC
Format/Info                              : Advanced Audio Codec
Format profile                           : LC
Codec ID                                 : 40
Duration                                 : 4mn 5s
Bit rate mode                            : Variable
Bit rate                                 : 132 Kbps
Maximum bit rate                         : 171 Kbps
Channel(s)                               : 2 channels
Channel positions                        : Front: L R
Sampling rate                            : 44.1 KHz
Compression mode                         : Lossy
Stream size                              : 3.93 MiB (6%)
Title                                    : (C) 2007 Google Inc. v08.13.2007.
Encoded date                             : UTC 2010-07-20 01:25:30
Tagged date                              : UTC 2010-07-20 01:25:31
pic
Enigma(clips).torrent
Трекер: Зарегистрирован

magnet ссылка

 


Скачать .torrent

14 KB

Статус: проверено (by tekk3n в 28-Ноя-12 15:16)
Зарегистрирован: 27-Ноя-12 18:49
Скачан: 323 раза
Размер: 1.19 GB | 
Поблагодарили:
Скачать Enigma (clips) [2007-2011, New Age, Relax, Meditative & Flamenco, DVDRip] торрент
 


Похожие раздачи

LORDorakUL

post 27-Ноя-12 21:06 (спустя 2 часа 17 минут)

потрясающе, большущее вам спасибо

GAI1982

post 22-Дек-12 00:16 (спустя 24 дня)

Сколько девок было от..бано под эти мелодии :D

Текущее время: 28-Окт 06:22

Часовой пояс: GMT + 3



Вы не можете начинать темы
Вы не можете отвечать на сообщения
Вы не можете редактировать свои сообщения
Вы не можете удалять свои сообщения
Вы не можете голосовать в опросах
Вы не можете прикреплять файлы к сообщениям
Вы не можете скачивать файлы