Loading...
Error
 
Мини-чат
 

Скачать торрент (Pop, Dance, Euro House) Inna - 3 Albums - 2010-2013, FLAC (image+.cue), lossless



 
Автор Сообщение

Sacred

post 13-Июн-13 21:48

pic

pic

Год выпуска: 2010-2013 | Жанр: Pop, Dance, Euro House | Продолжительность: 00:43:38+00:45:30+00:59:00
Тип рипа: image+.cue | Аудиокодек: FLAC (*.flac) | Битрейт аудио: lossless
Страна:pic | Наличие сканов в содержимом раздачи: да
2010 - Hot
pic
Год издания диска: 2010
Издатель (лейбл): Rodeo Media
Номер по каталогу: RDM110

01. Hot (3:37)
02. Deja Vu (feat. Bob Taylor) (4:20)
03.Fever (3:25)
04. Love (3:39)
05. Amazing (3:25)
06. Don't Let The Music Die (3:35)
07. 10 Minutes (3:19)
08. On & On (4:38)
09. Ladies (5:07)
10. Left Right (4:29)
11. Days Nights (3:23)
12. On & On (Chillout Mix) (4:01)

Продолжительность: 00:43:38
http://www.discogs.com/Inna-Hot/release/2240011
Лог создания рипа
Exact Audio Copy V0.99 prebeta 5 from 4. May 2009

EAC uitlezen log bestand van 25. April 2010, 15:28

Inna / Hot

gebruikt loopwerk : PIONEER DVD-RW DVR-218L Adapter: 3 ID: 0

Lees mode : Veilig
Gebruik accurate stream : Ja
Audio buffer uitgeschakeld : Neen
Gebruik C2 Foutinformatie : Ja

Lees-offset correctie : 6
Overlees in Lead-In en Lead-Out : Neen
Vul ontbrekende offset samples met stiltes aan : Ja
Wis stilte blokken aan het begin en einde : Neen
Nul samples gebruikt in CRC berekeningen : Ja
Gebruik interface : Native Win32 interface voor Win NT/2000/XP

Gebruik uitgave formaat : Interne WAV Routines
Sample formaat : 44.100 Hz; 16 Bit; Stereo

TOC van de uitgelezen CD

Track | Start | Lengte | Startsector | Eindsector
--------------------------------------------------------
1 | 0:00.00 | 3:36.71 | 0 | 16270
2 | 3:36.71 | 4:19.53 | 16271 | 35748
3 | 7:56.49 | 3:24.50 | 35749 | 51098
4 | 11:21.24 | 3:38.53 | 51099 | 67501
5 | 15:00.02 | 3:25.36 | 67502 | 82912
6 | 18:25.38 | 3:35.24 | 82913 | 99061
7 | 22:00.62 | 3:18.48 | 99062 | 113959
8 | 25:19.35 | 4:38.18 | 113960 | 134827
9 | 29:57.53 | 5:07.21 | 134828 | 157873
10 | 35:04.74 | 4:28.62 | 157874 | 178035
11 | 39:33.61 | 3:22.61 | 178036 | 193246
12 | 42:56.47 | 4:00.57 | 193247 | 211303

Bereikstatus en fouten

Geselecteerd bereik

Bestandsnaam C:\Post\Inna - Hot (EAC)\Inna - Hot.wav

Piek niveau 100.0 %
Bereikskwaliteit 100.0 %
Kopie CRC 82DB28E6
Kopie OK

Geen fouten opgetreden

Einde van het status rapport
Лог проверки accurip
[CUETools log; Date: 18.10.2011 10:05:41; Version: 2.1.2a]
[AccurateRip ID: 00147995-00c045d8-a00b010c] found.
Track [ CRC ] Status
01 [c6e0170a] (1/1) Accurately ripped
02 [bef24d7e] (1/1) Accurately ripped
03 [28e3f711] (1/1) Accurately ripped
04 [f78d9919] (1/1) Accurately ripped
05 [87835b4e] (1/1) Accurately ripped
06 [0080f08b] (1/1) Accurately ripped
07 [a01ca4c5] (1/1) Accurately ripped
08 [91ba5d73] (1/1) Accurately ripped
09 [23b23842] (1/1) Accurately ripped
10 [b1a5ce55] (1/1) Accurately ripped
11 [28a2ed59] (1/1) Accurately ripped
12 [e755b57c] (1/1) Accurately ripped

Track Peak [ CRC32 ] [W/O NULL]
-- 100,0 [82DB28E6] [71952223]
01 100,0 [6AD6E332] [1678D1E7]
02 100,0 [B357E7D2] [9C67BE0B]
03 100,0 [1A1DB5DE] [8809FD7F]
04 100,0 [BDBB87C9] [D23D0025]
05 100,0 [9A4705B5] [D2363469]
06 100,0 [FAB9B117] [F304DCB4]
07 100,0 [3A54D60C] [7A1EDE75]
08 100,0 [E10B14FC] [C0067322]
09 100,0 [792FC7AD] [C9A22444]
10 100,0 [E5350ED2] [91E54D49]
11 100,0 [4DF5BEB5] [9AB2C58C]
12 100,0 [5A03EA96] [8028A61F]
2011 - I Am The Club Rocker
pic
Год издания диска: 2011
Издатель (лейбл): Spinnin' Records
Номер по каталогу: SPCD80026

01. Un Momento (feat. Juan Magan) (3:24)
02. Club Rocker (feat. Flo Rida) (3:34)
03. House Is Going On (3:17)
04. Endless (3:14)
05. Sun Is Up (3:45)
06. Wow (3:09)
07. Senorita (3:17)
08. We're Going In The Club (3:14)
09. July (3:55)
10. No Limit (3:26)
11. Put Your Hands Up (3:32)
12. Moon Girl (3:33)
13. Club Rocker (Play & Win Remix) (4:09)

Продолжительность: 00:45:30
http://www.discogs.com/Inna-I-Am-The-Club-Rocker/release/3111157
Лог создания рипа
Exact Audio Copy V1.0 beta 2 from 29. April 2011

EAC uitlezen log bestand van 16. Oktober 2011, 17:18

Inna / I Am The Club Rocker

gebruikt loopwerk : PIONEER DVD-RW DVR-218L Adapter: 3 ID: 0

Lees mode : : Veilig
Gebruik accurate stream : Ja
Audio buffer uitgeschakeld : Neen
Maak gebruik van C2 pointers : Ja

Lees-offset correctie : : 6
Overlees in Lead-In en Lead-Out : Neen
Vul ontbrekende offset samples met stiltes aan : Ja
Wis stilte blokken aan het begin en einde : Neen
Nul samples gebruikt in CRC berekeningen : Neen
Gebruikte interface : Native Win32 interface voor Win NT & 2000

Gebruik uitgave formaat : : Interne WAV Routines
Sample formaat : 44.100 Hz; 16 Bit; Stereo

TOC van de uitgelezen CD

Track | Start | Lengte | Start sector | Eind sector
----------------------------------------------------------
1 | 0:00.00 | 3:24.28 | 0 | 15327
2 | 3:24.28 | 3:34.16 | 15328 | 31393
3 | 6:58.44 | 3:16.40 | 31394 | 46133
4 | 10:15.09 | 3:14.04 | 46134 | 60687
5 | 13:29.13 | 3:44.39 | 60688 | 77526
6 | 17:13.52 | 3:09.28 | 77527 | 91729
7 | 20:23.05 | 3:17.25 | 91730 | 106529
8 | 23:40.30 | 3:14.04 | 106530 | 121083
9 | 26:54.34 | 3:55.20 | 121084 | 138728
10 | 30:49.54 | 3:26.18 | 138729 | 154196
11 | 34:15.72 | 3:31.65 | 154197 | 170086
12 | 37:47.62 | 3:33.07 | 170087 | 186068
13 | 41:20.69 | 4:09.28 | 186069 | 204771

Bereikstatus en fouten

Geselecteerd bereik

Bestandsnaam C:\POST 2\Inna - I Am The Club Rocker (EAC)\Inna - I Am The Club Rocker.wav

Piek niveau 100.0 %
Uitlees snelheid 5.8 X
Bereikskwaliteit 100.0 %
Kopie CRC CD0FEF23
Kopie OK

Geen fouten opgetreden

AccurateRip samenvatting

Track 1 niet aanwezig in database
Track 2 niet aanwezig in database
Track 3 niet aanwezig in database
Track 4 niet aanwezig in database
Track 5 niet aanwezig in database
Track 6 niet aanwezig in database
Track 7 niet aanwezig in database
Track 8 niet aanwezig in database
Track 9 niet aanwezig in database
Track 10 niet aanwezig in database
Track 11 niet aanwezig in database
Track 12 niet aanwezig in database
Track 13 niet aanwezig in database

Geen enkele Track aanwezig in AccurateRip database

Einde status report
Лог проверки accurip
[CUETools log; Date: 18.10.2011 10:18:08; Version: 2.1.2a]
[AccurateRip ID: 00156d6d-00d6b9e1-920aaa0d] disk not present in database.

Track Peak [ CRC32 ] [W/O NULL]
-- 100,0 [67CE3F8D] [CD0FEF23]
01 100,0 [59B3BC0B] [EA194EEA]
02 100,0 [281FCFEA] [B51E742C]
03 100,0 [05DCB220] [4C4D9596]
04 100,0 [A8ACFF43] [E8159953]
05 100,0 [10A876CE] [4BE8E115]
06 100,0 [963B37E1] [412064A8]
07 100,0 [A2D286DD] [6A74B3C6]
08 100,0 [D4D8C90C] [96455FC5]
09 100,0 [A241B28F] [1DFBD4BD]
10 100,0 [717C215F] [0B6E9659]
11 100,0 [D81F00EE] [747CC979]
12 100,0 [B7261ECA] [3D693F66]
13 100,0 [95534645] [4C8D47C9]
2013 - Party Never Ends
pic
Год издания диска: 2013
Издатель (лейбл): Warner Music
Номер по каталогу: WPCR 14787

01. In Your Eyes (2:48)
02. We Like To Party (3:52)
03. Crazy Sexy Wild (3:07)
04. More Than Friends (feat. Daddy Yankee) (3:58)
05. Fall In Love / Lie (3:57)
06. Shining Star (2:51)
07. Take Me Down To Mexico (4:10)
08. Famous (3:31)
09. Take It Off (3:29)
10. Tonight (3:42)
11. J'Adore (3:16)
12. Caliente (3:23)
13. INNdiA (feat. Play & Win) (3:35)
14. Ok (3:24)
15. Live Your Life (3:08)
16. Party Never Ends (3:15)
17. Club Rocker (feat. Flo Rida) [Bonus Track] (3:35)

Продолжительность: 00:59:00
http://www.discogs.com/Inna-Party-Never-Ends/master/551683
Лог создания рипа
Exact Audio Copy V1.0 beta 3 from 29. August 2011

EAC extraction logfile from 29. April 2013, 19:51

Inna / Party Never Ends

Used drive : ATAPI iHAS124 C Adapter: 3 ID: 0

Read mode : Secure
Utilize accurate stream : Yes
Defeat audio cache : Yes
Make use of C2 pointers : No

Read offset correction : 6
Overread into Lead-In and Lead-Out : No
Fill up missing offset samples with silence : Yes
Delete leading and trailing silent blocks : No
Null samples used in CRC calculations : Yes
Used interface : Native Win32 interface for Win NT & 2000

Used output format : User Defined Encoder
Selected bitrate : 896 kBit/s
Quality : High
Add ID3 tag : No
Command line compressor : C:\Program Files (x86)\Exact Audio Copy\Flac\flac.exe
Additional command line options : -V -8 -T "Artist=%artist%" -T "Title=%title%" -T "Album=%albumtitle%" -T "Date=%year%" -T "Tracknumber=%tracknr%" -T "Genre=%genre%" -T "Comment=ripped by alxsha" %source%

TOC of the extracted CD

Track | Start | Length | Start sector | End sector
---------------------------------------------------------
1 | 0:00.00 | 2:47.38 | 0 | 12562
2 | 2:47.38 | 3:51.45 | 12563 | 29932
3 | 6:39.08 | 3:07.03 | 29933 | 43960
4 | 9:46.11 | 3:57.71 | 43961 | 61806
5 | 13:44.07 | 3:57.36 | 61807 | 79617
6 | 17:41.43 | 2:51.11 | 79618 | 92453
7 | 20:32.54 | 4:09.45 | 92454 | 111173
8 | 24:42.24 | 3:31.17 | 111174 | 127015
9 | 28:13.41 | 3:28.66 | 127016 | 142681
10 | 31:42.32 | 3:42.19 | 142682 | 159350
11 | 35:24.51 | 3:16.01 | 159351 | 174051
12 | 38:40.52 | 3:22.38 | 174052 | 189239
13 | 42:03.15 | 3:35.02 | 189240 | 205366
14 | 45:38.17 | 3:23.38 | 205367 | 220629
15 | 49:01.55 | 3:07.74 | 220630 | 234728
16 | 52:09.54 | 3:15.21 | 234729 | 249374
17 | 55:25.00 | 3:34.56 | 249375 | 265480

Range status and errors

Selected range

Filename D:\Inna - Party Never Ends.wav

Peak level 98.8 %
Extraction speed 8.8 X
Range quality 99.9 %
Test CRC E61A7215
Copy CRC E61A7215
Copy OK

No errors occurred

AccurateRip summary

Track 1 not present in database
Track 2 not present in database
Track 3 not present in database
Track 4 not present in database
Track 5 not present in database
Track 6 not present in database
Track 7 not present in database
Track 8 not present in database
Track 9 not present in database
Track 10 not present in database
Track 11 not present in database
Track 12 not present in database
Track 13 not present in database
Track 14 not present in database
Track 15 not present in database
Track 16 not present in database
Track 17 not present in database

None of the tracks are present in the AccurateRip database

End of status report

==== Log checksum 6933CADE09C38A6960E91B466011ADAE2EC1C162495C13449FCE41CA1A32F42C ====
Лог проверки accurip
AUDIOCHECKER v2.0 beta (build 457) - by Dester - [email protected]
~~~~~~~~~~~~~~~~~~~~~~~~~~~~~~~~~~
-=== DO NOT EDIT THIS FILE! ===-

Path: ...\2013 - Party Never Ends [WPCR14787]

1 -=- Inna - Party Never Ends.flac -=- CDDA (100%)

80071924
pic pic

Inna - 3 Albums (2010-2013) [FLAC].torrent
Трекер: Зарегистрирован

magnet ссылка

 


Скачать .torrent

15 KB

Статус: проверено (by BOOT в 14-Июн-13 01:19)
Зарегистрирован: 13-Июн-13 21:48
Скачан: 152 раза
Размер: 1.2 GB | 
Поблагодарили:
Скачать (Pop, Dance, Euro House) Inna - 3 Albums - 2010-2013, FLAC (image+.cue), lossless торрент
 


Похожие раздачи

Текущее время: 02-Дек 11:34

Часовой пояс: GMT + 3



Вы не можете начинать темы
Вы не можете отвечать на сообщения
Вы не можете редактировать свои сообщения
Вы не можете удалять свои сообщения
Вы не можете голосовать в опросах
Вы не можете прикреплять файлы к сообщениям
Вы не можете скачивать файлы