Loading...
Error
 

Скачать торрент Дом, свидание с планетой / Home (Ян Артус Бертранд) [2009, документальный, драма, семейный, BDRip-AVC]от R.G. RustorRipper's | Полная версия | DeMon

 
Автор Сообщение

VIP101

post 06-Окт-14 15:50

Дом, свидание с планетой / Home

pic
picГод выпуска: 2009
picСтраны: Франция pic
picЖанры: документальный, драма, семейный слова
picПродолжительность: 01:58:25
picПеревод: Любительский (одноголосый) [DeMon]
picРежиссер: Ян Артус Бертранд
picВ ролях: Ян Артус Бертранд / Yann Arthus-Bertrand (рассказчик, озвучка), Гленн Клоуз / Glenn Close (рассказчик, озвучка), Жак Гамблен / Jacques Gamblin (рассказчик, озвучка)
pic pic pic
picНевероятно зрелищный фильм легендарного Янна Артюса-Бертрана демонстрирует зрителю подлинную красоту и величие планеты Земля.
Бескрайняя река Окаванго и могучий вулкан Килиманджаро, девственные пейзажи Исландии и ледяные просторы Антарктиды - вся безграничная палитра красок живого мира с высоты птичьего полета.
Это наш общий дом, который так же удивителен, как и беззащитен перед разрушительной деятельностью человека. Губительные последствия промышленной оккупации, техногенные катастрофы и военные действия наносят неумолимый ущерб планете, раскрывая зрителю реальную ситуацию.
Весь фильм снимался с вертолета на камеру высокого разрешения Cineflex.
За 18 месяцев съемочная группа побывала в 53 странах мира. При этом в некоторых странах, например в Китае и Саудовской Аравии, режиссеру было отказано в проведении воздушной съемки. В Индии половина отснятых материалов была конфискована, а в Аргентине Артюс-Бертрану и его помощникам пришлось провести неделю в тюрьме.
Рождению фильма предшествовали 15 лет работы, в течение которых было создано 500 тысяч фотографий, запечатленных в более чем 100 странах мира, продано 3 миллиона книг, проведено 100 бесплатных open-air-выставок с более чем 100 миллионами посетителей, снято 4 документальных фильма со зрительской аудиторией 5 миллионов человек.

pic Автор рипа: VIP101 pic pic
picКачество: BDRip-AVC
picФормат: MKV
picВидео кодек: AVC
picАудио кодек: AC3
picВидео: 1024x576 (16:9), 23.976 fps, AVC, 2 100 Kbps
picАудио: AC3, 448 Kbps, 48.0 KHz, 6 ch|RUS|pic
Рейтинг
Доп.Информация
picБюджет: € 10 000 000
picЗрители: Франция 119.9 тыс. pic, Италия 28.2 тыс. pic, Чехия 14.6 тыс. pic
picПремьера (мир): 3 июня 2009, ...
picПремьера (РФ): 5 июня 2009
picРелиз на DVD: 22 февраля 2011, «Кармен Видео», ...
picРелиз на Blu-Ray: 1 июня 2011, «Кармен Видео», ...
Знаете ли Вы, что...
· Рождению фильма HOME предшествовали 15 лет работы, в течение которых было создано 500 тысяч фотографий, запечатленных в более чем 100 странах мира, продано 3 миллиона книг, проведено 100 бесплатных open-air-выставок с более чем 100 миллионами посетителей, снято 4 документальных фильма со зрительской аудиторией 5 миллионов человек.

· За 18 месяцев съемочная группа побывала в 53 странах мира. При этом в некоторых странах, например в Китае и Саудовской Аравии, режиссёру было отказано в проведении воздушной съёмки. В Индии половина отснятых материалов была конфискована, а в Аргентине Артюс-Бертрану и его помощникам пришлось провести неделю в тюрьме.

· Фильм был создан специально как призыв к объединению для спасения будущего нашей планеты. Именно поэтому он распространяется бесплатно. Владельцы прав на фильм и его распространение (компании PPR Group и EuropaCorp) также согласились не использовать его в коммерческих целях.

· Весь фильм снимался с вертолёта на камеру высокого разрешения Cineflex.

· Премьера фильма состоялась 5 июня 2009 года, во Всемирный день окружающей среды. Картина одновременно транслировалась на крупнейших площадках 87 стран мира в формате открытого бесплатного показа.
МедиаИнфо

Код:

General
Complete name                    : Home.2009.BDRip-AVC.VIP101.mkv
Format                           : Matroska
File size                        : 2.12 GiB
Duration                         : 1h 58mn
Overall bit rate                 : 2 568 Kbps
Encoded date                     : UTC 2014-10-06 12:53:40
Writing application              : mkvmerge v6.8.0 ('Theme for Great Cities') 32bit built on Mar  2 2014 21:27:07
Writing library                  : libebml v1.3.0 + libmatroska v1.4.1

Video
ID                               : 1
Format                           : AVC
Format/Info                      : Advanced Video Codec
Format profile                   : [email protected]
Format settings, CABAC           : Yes
Format settings, ReFrames        : 10 frames
Muxing mode                      : Container [email protected]
Codec ID                         : V_MPEG4/ISO/AVC
Duration                         : 1h 58mn
Bit rate                         : 2 100 Kbps
Width                            : 1 024 pixels
Height                           : 576 pixels
Display aspect ratio             : 16:9
Frame rate                       : 23.976 fps
Color space                      : YUV
Chroma subsampling               : 4:2:0
Bit depth                        : 8 bits
Scan type                        : Progressive
Bits/(Pixel*Frame)               : 0.148
Stream size                      : 1.71 GiB (81%)
Writing library                  : x264 core 119 r2106 07efeb4
Encoding settings                : cabac=1 / ref=10 / deblock=1:-1:-1 / analyse=0x3:0x113 / me=hex / subme=9 / psy=1 / psy_rd=1.00:0.10 / mixed_ref=1 / me_range=16 / chroma_me=1 / trellis=1 / 8x8dct=1 / cqm=0 / deadzone=21,11 / fast_pskip=1 / chroma_qp_offset=-3 / threads=12 / sliced_threads=0 / nr=0 / decimate=1 / interlaced=0 / bluray_compat=0 / constrained_intra=0 / bframes=3 / b_pyramid=2 / b_adapt=1 / b_bias=0 / direct=3 / weightb=1 / open_gop=0 / weightp=2 / keyint=240 / keyint_min=23 / scenecut=40 / intra_refresh=0 / rc_lookahead=50 / rc=2pass / mbtree=1 / bitrate=2100 / ratetol=1.0 / qcomp=0.60 / qpmin=0 / qpmax=69 / qpstep=4 / cplxblur=20.0 / qblur=0.5 / ip_ratio=1.40 / aq=1:1.00

Audio
ID                               : 2
Format                           : AC-3
Format/Info                      : Audio Coding 3
Mode extension                   : CM (complete main)
Codec ID                         : A_AC3
Duration                         : 1h 58mn
Bit rate mode                    : Constant
Bit rate                         : 448 Kbps
Channel(s)                       : 6 channels
Channel positions                : Front: L C R, Side: L R, LFE
Sampling rate                    : 48.0 KHz
Bit depth                        : 16 bits
Stream size                      : 379 MiB (17%)
Language                         : Russian

Text #1
ID                               : 3
Format                           : PGS
Codec ID                         : S_HDMV/PGS
Codec ID/Info                    : The same subtitle format used on BDs/HD-DVDs

Text #2
ID                               : 4
Format                           : PGS
Codec ID                         : S_HDMV/PGS
Codec ID/Info                    : The same subtitle format used on BDs/HD-DVDs
Скриншоты

pic
Home.2009.BDRip-AVC.VIP101.mkv.torrent
Трекер: Зарегистрирован

magnet ссылка

 


Скачать .torrent

11 KB

Статус: проверено (by N1K0LS0N в 06-Окт-14 16:55)
Зарегистрирован: 06-Окт-14 15:51
Скачан: 14 раз
Размер: 2.12 GB | 
Поблагодарили:
Скачать Дом, свидание с планетой / Home (Ян Артус Бертранд) [2009, документальный, драма, семейный, BDRip-AVC]от R.G. RustorRipper's | Полная версия | DeMon торрент
 


Похожие раздачи

petrocjan

post 10-Фев-15 18:39 (спустя 4 месяца 4 дня)

Где раздача?Встаньте плиз

Текущее время: 16-Июл 07:52

Часовой пояс: GMT + 3



Вы не можете начинать темы
Вы не можете отвечать на сообщения
Вы не можете редактировать свои сообщения
Вы не можете удалять свои сообщения
Вы не можете голосовать в опросах
Вы не можете прикреплять файлы к сообщениям
Вы не можете скачивать файлы