Loading...
Error
 

Скачать торрент Базовый курс по основам ИТ. Видеокурс [А. Кошелев] (2014-2015, IT, обучение, PCRec) R.G. Мастер-Класс

 
Автор Сообщение

Music Listener

post 21-Апр-15 12:45

Базовый курс по основам ИТ


pic
  • Год выпуска: 2014-2015
  • Страна: Россия
  • Тематика: IT, обучение
  • Тип материала: Обучающее видео
  • Продолжительность: 21:47:38
  • Автор: А. Кошелев
  • Язык: Русский
    Описание:
    Данный курс формирует понимание современных направлений развития Информационных технологий. Автор познакомит Вас с функциональными возможностями аппаратных и программных компонентов, а также с оптимальными методиками обслуживания и правилами техники безопасности.

    Материал курса можно рассматривать как вводный и не требующий никаких предварительных специальных знаний. В курсе рассматриваются наиболее известные процессные методики и стандарты в их взаимосвязи.


    Содержание:
    Урок 1. Клиент-серверная архитектура
    • Развитие ИТ специалиста.
    • Клиент-серверная архитектура.
    • CPU, HDD, RAM и их взаимодействие.
    • Файл подкачки.
    • Процессоры. Многоядерность. Hyper-Threading.
    • Жесткие диски. HDD, SSD, HHD.
    • RAID
    • RAID 0, 1, 0+1, 1+0
    • RAID 5, RAID 6
    • Демонстрация RAID с пояснениями

    Урок 2. Виртуализация
    • Виртуализация. Архитектура, необходимость, плюсы и минусы. Технологии.
    • Hyper-V. Установка, интерфейс, настройки.
    • Виртуальные свичи (коммутаторы).
    • Виртуальные жесткие диски. Типы виртуальных дисков.
    • Виртуальная память.
    • Виртуальные процессоры.
    • Снапшоты.
    • Службы интеграции.

    Урок 3. Основы сети
    • Модель OSI, разбор всех уровней
    • Стек TCP/IP
    • Хабы
    • Свичи (коммутаторы). Таблица коммутации. Коммутация.
    • Роутеры (маршрутизаторы). Широковещательные домены.
    • IP-адрес, маска подсети, шлюз по-умолчанию. Выделение адреса подсети.
    • Демонстрация: ARP табилца, таблица маршрутизации, маршруты, шлюз.

    Урок 4. Сетевые сервисы
    • Broadcasts
    • Выдача IP-адресов
    • DHCP
    • APIPA
    • Демонстрация: DHCP, APIPA
    • Firewall
    • NAT
    • Разрешение имен
    • Демонстрация: DNS, NETBIOS, LLMNR, DNS-суффиксы, настройки подключения, кеши

    Урок 4.5. RNAT, привязки веб-сайтов
    • Небольшой доп. урок к темам 4 урока

    Урок 5. Жесткий диск изнутри
    • Адресация на дисках. CHS, LBA.
    • Кластер файловой системы
    • Разметка диска MBR
    • Разметка диска GPT
    • Типы дисков в WIndows: Обычные (Basic), Динамические
    • Демонстрация: MBR, GPT, Basic, Dynamic disks

    Урок 5.5. Подключение хранилищ. Интерфейсы и протоколы для подключения дисков
    • PATA (IDE)
    • SATA
    • SCSI
    • SAS
    • Fibre channel

    Урок 6. BIOS, UEFI и процесс загрузки
    • BIOS
    • UEFI
    • BIOS boot
    • UEFI boot
    • Демонстрация с дополнениями

    Урок 7. Домен, рабочая группа, процессы и сервисы, удаленный доступ
    • Рабочая группа
    • Домен
    • Профили пользователей
    • Сервисы и процессы, запуск от имени
    • Удаленный доступ: Web-access, RDP, VPN
    • Демонстрация удаленного доступа

    Урок 8. Разворачиваем тестовый стенд
    • В уроке рассказывается как поднять тестовый стенд (на Hyper-V). DHCP, DNS, AD DS, ввод машин в домен.

    Урок 9. Шифрование, PKI, SSL сертификаты
    • Рассмотрим сертификаты — что это, для чего это и как это работает

    Урок 10. Разрешения файловой системы
    • NTFS права
    • Share права
    • Демонстрация
    • UAC

    Урок 11. Корпоративная среда, дополнительные компоненты
    • Патч панели, свичи, роутер
    • Прокси сервер
    • GPO, наследование, объединение, параметры
    • Настройки интернета
    • Маппинг дисков
    • Реестр
    • Базы данных
    • Бэкапы

    Урок 12. Траблшутинг сети
    • В уроке рассказывается о подходе к траблшутингу на живых примерах


  • Качество: PCRec
  • Формат: MP4
  • Видео кодек: AVC
  • Аудио кодек: AAC-LC
  • Видео: avc1, 1280x720, ~534 kbps, 30 fps
  • Аудио: AAC-LC, 44.1 KHz, 2 ch stereo, 192 Kbps



MediaInfo

Код:

General
Полное имя                               : D:\Мастер-Класс\Базовый курс по основам ИТ (2014-2015)\Урок 1. Клиент-серверная архитектура.mp4
Формат                                   : MPEG-4
Профиль формата                          : Base Media / Version 2
Идентификатор кодека                     : mp42
Размер файла                             : 472 MiB
Продолжительность                        : 1h 40mn
Режим общего битрейта                    : Variable
Общий поток                              : 658 Kbps
Дата кодирования                         : UTC 2015-01-06 11:17:36
Дата пометки                             : UTC 2015-01-06 11:17:36
gsst                                     : 0
gstd                                     : 6419271
gssd                                     : B0AFCDABDMH1425464256102652
gshh                                     : r17---sn-5go7ln7s.googlevideo.com

Video
Идентификатор                            : 1
Формат                                   : AVC
Формат/Информация                        : Advanced Video Codec
Профиль формата                          : [email protected]
Параметр CABAC формата                   : Yes
Параметр ReFrames формата                : 1 frame
Идентификатор кодека                     : avc1
Идентификатор кодека/Информация          : Advanced Video Coding
Продолжительность                        : 1h 40mn
Битрейт                                  : 460 Kbps
Ширина                                   : 1 280 pixels
Высота                                   : 720 pixels
Соотношение сторон                       : 16:9
Режим частоты кадров                     : Variable
Частота кадров                           : 30.000 fps
Минимальная частота кадров               : 29.990 fps
Максимальная частота кадров              : 30.020 fps
Цветовое пространство                    : YUV
Субдискретизация насыщенности            : 4:2:0
Битовая глубина                          : 8 bits
Тип развёртки                            : Progressive
Бит/(Пиксели*Кадры)                      : 0.017
Размер потока                            : 330 MiB (70%)
Язык                                     : English
Дата кодирования                         : UTC 2015-01-06 11:17:36
Дата пометки                             : UTC 2015-01-06 11:17:36

Audio
Идентификатор                            : 2
Формат                                   : AAC
Формат/Информация                        : Advanced Audio Codec
Профиль формата                          : LC
Идентификатор кодека                     : 40
Продолжительность                        : 1h 40mn
Продолжительность оригинала              : 1h 40mn
Вид битрейта                             : Variable
Битрейт                                  : 192 Kbps
Каналы                                   : 2 channels
Расположение каналов                     : Front: L R
Частота                                  : 44.1 KHz
Метод сжатия                             : Lossy
Размер потока                            : 138 MiB (29%)
Размер потока оригинала                  : 138 MiB (29%)
Язык                                     : English
Дата кодирования                         : UTC 2015-01-06 11:17:36
Дата пометки                             : UTC 2015-01-06 11:17:36
mdhd_Duration                            : 6015044
Скриншоты
     

pic
[rustorka.com]Базовый курс по основам ИТ (2014-2015).torrent
 СЕРЕБРЯНАЯ РАЗДАЧА! СКАЧАННОЕ ЗАСЧИТЫВАЕТСЯ ТОЛЬКО НАПОЛОВИНУ! 
Вечный
Трекер: Зарегистрирован

magnet ссылка

 


Скачать .torrent

27 KB

Статус: проверено (by Tarkin в 21-Апр-15 12:53)
Зарегистрирован: 21-Апр-15 12:45
Скачан: 106 раз
Размер: 5.15 GB | 
Поблагодарили:
Скачать Базовый курс по основам ИТ. Видеокурс [А. Кошелев] (2014-2015, IT, обучение, PCRec) R.G. Мастер-Класс торрент
 


Похожие раздачи

Гуиральдес

post 21-Апр-15 13:17 (спустя 31 минута)

Спасибо! В коллекцию ;)

Текущее время: 17-Сен 20:10

Часовой пояс: GMT + 3



Вы не можете начинать темы
Вы не можете отвечать на сообщения
Вы не можете редактировать свои сообщения
Вы не можете удалять свои сообщения
Вы не можете голосовать в опросах
Вы не можете прикреплять файлы к сообщениям
Вы не можете скачивать файлы