Loading...
Error
 

Скачать торрент Slipknot - Rock On The Range Festival [2015, Nu Metal, HDTVRip 720p]

 
Автор Сообщение

Sapatist

post 10-Июн-15 19:11

Slipknot - Rock On The Range Festival

pic
Год выхода: 2015
Страна: USA
Жанр: Nu Metal / Alt.Metal
Продолжительность: 01:24:40

Описание: Запись выступления на фестивале Rock On The Range в Колумбус, Огайо, 15 мая 2015 г.
Треклист:
01. Sarcastrophe
02. The Heretic Anthem
03. Psychosocial
04. The Devil In I
05. AOV
06. Wait And Bleed
07. Vermilion
08. Killpop
09. Before I Forget
10. Duality
11. Eyeless
12. Spit It Out
13. Custer
14. 742617000027
15. (sic)
16. Surfacing

Качество видео: HDTV 720p
Формат видео: .mkv
Видео кодек: H.264
Аудио кодек: AC3
Видео: AVC 1280x720 (16:9), 29.97fps, 4 208 Kbps
Аудио: Dolby AC3 48000Hz 6ch 384kbps

MI:

Код:

avs [info]: 1280x720p 1:1 @ 30000/1001 fps (cfr)
x264 [info]: using SAR=1/1
x264 [info]: profile High, level 4.1

x264 [info]: frame I:948 Avg QP:17.98 size: 70714
x264 [info]: frame P:34038 Avg QP:19.05 size: 34983
x264 [info]: frame B:117280 Avg QP:21.69 size: 12554
x264 [info]: consecutive B-frames: 1.1% 1.6% 10.7% 31.5% 17.1% 32.4% 5.0% 0.4% 0.2%
x264 [info]: mb I I16..4: 9.9% 75.8% 14.3%
x264 [info]: mb P I16..4: 5.4% 17.9% 1.6% P16..4: 43.4% 18.6% 9.3% 0.0% 0.0% skip: 3.7%
x264 [info]: mb B I16..4: 0.6% 1.3% 0.2% B16..8: 38.0% 8.2% 1.7% direct:10.3% skip:39.8% L0:42.9% L1:44.4% BI:12.7%
x264 [info]: 8x8 transform intra:70.5% inter:72.4%
x264 [info]: direct mvs spatial:100.0% temporal:0.0%
x264 [info]: coded y,uvDC,uvAC intra: 53.9% 78.8% 58.0% inter: 20.0% 34.3% 8.0%
x264 [info]: i16 v,h,dc,p: 48% 18% 16% 18%
x264 [info]: i8 v,h,dc,ddl,ddr,vr,hd,vl,hu: 11% 7% 17% 9% 11% 12% 11% 11% 12%
x264 [info]: i4 v,h,dc,ddl,ddr,vr,hd,vl,hu: 13% 10% 9% 9% 13% 12% 12% 10% 13%
x264 [info]: i8c dc,h,v,p: 46% 23% 18% 13%
x264 [info]: Weighted P-Frames: Y:5.7% UV:4.5%
x264 [info]: ref P L0: 46.7% 6.7% 18.1% 7.7% 5.7% 5.1% 4.0% 2.9% 2.6% 0.5% 0.0%
x264 [info]: ref B L0: 80.0% 10.2% 4.0% 2.0% 1.5% 1.2% 0.8% 0.3%
x264 [info]: ref B L1: 94.4% 5.6%
x264 [info]: kb/s:4298.99

encoded 152266 frames, 7.62 fps, 4298.99 kb/s
Код:
General
Unique ID                   : 173964135503070221690939026129354242768 (0x82E046168B0789048AE651FA14A03AD0)
Complete name               : \Slipknot.Rock.On.The.Range.Festival 2015.HDTVRip.720p.AC3.mkv
Format                      : Matroska
Format version              : Version 4 / Version 2
File size                   : 2.77 GiB
Duration                    : 1h 24mn
Overall bit rate            : 4 685 Kbps
Encoded date                : UTC 2015-05-16 23:05:04
Writing application         : mkvmerge v7.9.0 ('Birds') 64bit
Writing library             : libebml v1.3.1 + libmatroska v1.4.2
DURATION                    : 01:24:40.608000000
NUMBER_OF_FRAMES            : 158769
NUMBER_OF_BYTES             : 243869184
_STATISTICS_WRITING_APP     : mkvmerge v7.9.0 ('Birds') 64bit
_STATISTICS_WRITING_DATE_UT : 2015-05-16 23:05:04
_STATISTICS_TAGS            : BPS DURATION NUMBER_OF_FRAMES NUMBER_OF_BYTES

Video
ID                          : 1
Format                      : AVC
Format/Info                 : Advanced Video Codec
Format profile              : [email protected]
Format settings, CABAC      : Yes
Format settings, ReFrames   : 9 frames
Codec ID                    : V_MPEG4/ISO/AVC
Duration                    : 1h 24mn
Bit rate                    : 4 208 Kbps
Width                       : 1 280 pixels
Height                      : 720 pixels
Display aspect ratio        : 16:9
Frame rate mode             : Constant
Frame rate                  : 29.970 fps
Color space                 : YUV
Chroma subsampling          : 4:2:0
Bit depth                   : 8 bits
Scan type                   : Progressive
Bits/(Pixel*Frame)          : 0.152
Stream size                 : 2.49 GiB (90%)
Writing library             : x264 core 146 r2538 121396c
Encoding settings           : cabac=1 / ref=9 / deblock=1:-3:-3 / analyse=0x3:0x113 / me=umh / subme=9 / psy=1 / psy_rd=1.00:0.05 / mixed_ref=1 / me_range=24 / chroma_me=1 / trellis=2 / 8x8dct=1 / cqm=0 / deadzone=21,11 / fast_pskip=0 / chroma_qp_offset=-3 / threads=12 / lookahead_threads=2 / sliced_threads=0 / nr=0 / decimate=1 / interlaced=0 / bluray_compat=0 / constrained_intra=0 / bframes=8 / b_pyramid=2 / b_adapt=2 / b_bias=0 / direct=3 / weightb=1 / open_gop=0 / weightp=2 / keyint=250 / keyint_min=25 / scenecut=40 / intra_refresh=0 / rc_lookahead=50 / rc=crf / mbtree=0 / crf=21.0 / qcomp=0.60 / qpmin=0 / qpmax=69 / qpstep=4 / vbv_maxrate=40000 / vbv_bufsize=30000 / crf_max=0.0 / nal_hrd=none / filler=0 / ip_ratio=1.40 / pb_ratio=1.30 / aq=3:0.90
Language                    : English
Default                     : Yes
Forced                      : No
Color range                 : Limited
Color primaries             : BT.709
Transfer characteristics    : BT.709
Matrix coefficients         : BT.709
DURATION                    : 01:24:40.609000000
NUMBER_OF_FRAMES            : 152266
NUMBER_OF_BYTES             : 2730183976
_STATISTICS_WRITING_APP     : mkvmerge v7.9.0 ('Birds') 64bit
_STATISTICS_WRITING_DATE_UT : 2015-05-16 23:05:04
_STATISTICS_TAGS            : BPS DURATION NUMBER_OF_FRAMES NUMBER_OF_BYTES

Audio
ID                          : 2
Format                      : AC-3
Format/Info                 : Audio Coding 3
Mode extension              : CM (complete main)
Format settings, Endianness : Big
Codec ID                    : A_AC3
Duration                    : 1h 24mn
Bit rate mode               : Constant
Bit rate                    : 384 Kbps
Channel(s)                  : 6 channels
Channel positions           : Front: L C R, Side: L R, LFE
Sampling rate               : 48.0 KHz
Compression mode            : Lossy
Delay relative to video     : 21ms
Stream size                 : 233 MiB (8%)
Language                    : English
Default                     : Yes
Forced                      : No

Скриншоты:

Slipknot.Rock.On.The.Range.Festival 2015.HDTVRip.720p.AC3.mkv.torrent
Трекер: Зарегистрирован

magnet ссылка

 


Скачать .torrent

14 KB

Статус: проверено (by Sapatist в 10-Июн-15 19:11)
Зарегистрирован: 10-Июн-15 19:11
Скачан: 187 раз
Размер: 2.77 GB | 
Поблагодарили:
Скачать Slipknot - Rock On The Range Festival [2015, Nu Metal, HDTVRip 720p] торрент
 


Похожие раздачи

Luchador

post 10-Июн-15 19:24 (спустя 13 минут)

Благодарю, любезный!

Maratka

post 10-Июн-15 20:51 (спустя 1 час 26 минут)

Ого, как неожиданно. И спасибо :!:

Текущее время: 10-Дек 06:14

Часовой пояс: GMT + 3



Вы не можете начинать темы
Вы не можете отвечать на сообщения
Вы не можете редактировать свои сообщения
Вы не можете удалять свои сообщения
Вы не можете голосовать в опросах
Вы не можете прикреплять файлы к сообщениям
Вы не можете скачивать файлы