Loading...
Error
 

Скачать торрент Создание сложных V-Ray материалов для интерьера. Видеокурс [Иван Никитин] (2014, Работа с программами, PCRec) R.G. Мастер-Класс

 
Автор Сообщение

Music Listener

post 02-Июл-15 16:48

Создание сложных V-Ray материалов для интерьера


pic
  • Год выпуска: 2014
  • Страна: Россия
  • Тематика: Работа с программами
  • Тип материала: Обучающее видео
  • Продолжительность: 18:58:21
  • Автор: Иван Никитин
  • Язык: Русский
    Описание:
    Создание даже сложных материалов в 3Ds Max и V-Ray может стать для вас быстрым и понятным! В этом курсе Иван Никитин по шагам показал как создавать простые, сложные и очень сложные материалы, начиная с самых основ.

    Вы научитесь созданию любых материалов и ваши работы выйдут на новый уровень. Потому что иначе быть не может, если вы пройдете данный курс. Аналогов данному курсу нет ни в России, ни за рубежом. (по мнению автора)

    За время курса участники сделали более 3200 изображений!!! И это только финальные работы второго и третьего модуля курса! Хотите повторить успех финалистов и научиться быстро создавать материалы любой сложности? Изучите записи курса!


    Программа курса:
    • Основные параметры материалов, базовая часть.

    • Это книга, в которой показано на примерах и написано все, что нужно знать об основах материалов. Для многих участников это руководство стало настольной книгой, как справочник.
    • Готовая система по организации вашей работы. Если все упорядочить и настроить как здесь написано, то у вас все будет получаться гораздо быстрее.

    • Photoshop+3Ds Max при создании текстур

    • Поиск текстур в интернет
    • Создание текстур из фото
    • Создание бесшовных текстур
    • Создание текстур для бампа, дисплейс, отражения и прозрачности
    • Редактирование и смешивание нескольких текстур

    • Создание реалистичных материалов средней сложности

    • Разбор дополнительных сложных параметров, которые нам понадобятся в этой части
    • Шаблоны и типовые значения параметров разных материалов
    • Особенности и типовые значения для каждого типа материалов
    • Дерево — матовое, полированное, под лаком и без, шлифованное и грубое
    • Паркет — отдельная большая тема. Разные способы создания красивого реалистичного паркета до мелких деталей.
    • Металлы — матовые, полированные — хром, сталь, медь, латунь, золото, серебро, алюминий и другие
    • Стекло — прозрачное, матовое, полупрозрачное, с рисунком, цветное, тонированное и т.д.
    • Пластик — матовый, глянцевый, прозрачный, цветной, акрил
    • Плитка, мозаика, полированный камень
    • Кирпичи и камни
    • Различная краска
    • Разные ткани, рельеф и складки на тканях
    • Кожа — гладкая, грубая, матовая и глянцевая

    • Продвинутые сложные материалы. Больше реализма и эффекта в результате

    • Слои пыли на объектах
    • Грязь, царапины, потертости, капли краски, разводы на поверхности
    • Сияющее золото
    • Шелк с переливающимся узором
    • Материалы бархатных и ворсинистых тканей, ковров, полотенец
    • Обои с составным рисунком, рельефом и разным блеском на разных участках
    • Состаренные, поцарапанные, ржавые металлы
    • Старый сколотый кирпич и камень
    • Состаренное дерево
    • Облупленная, выцветшая краска
    • Натуральный огонь в камине, горящая свеча
    • Полупрозрачные материалы с подповерхностным рассеиванием света
    • и многое другое


  • Качество: PCRec
  • Формат: MP4
  • Видео кодек: AVC
  • Аудио кодек: AAC-LC
  • Видео: avc1, 1280х634, 30.000 fps, 724 Kbps
  • Аудио: AAC-LC, 44.1 KHz, 2 ch stereo, 192 Kbps



MediaInfo

Код:

Общее
Полное имя                               : D:\Мастер-Класс\Создание сложных V-Ray материалов для интерьера (2014)\День 1\Создание сложных Vray материалов для интерьера  День 1.mp4
Формат                                   : MPEG-4
Профиль формата                          : Base Media / Version 2
Идентификатор кодека                     : mp42
Размер файла                             : 323 Мбайт
Продолжительность                        : 55 м.
Режим общего битрейта                    : Переменный
Общий поток                              : 810 Кбит/сек
Дата кодирования                         : UTC 2013-10-13 17:47:52
Дата пометки                             : UTC 2013-10-13 17:47:52
gsst                                     : 0
gstd                                     : 3343068
gssd                                     : BADC23AE2HH1381944274631340
gshh                                     : r2---sn-n8v7lnes.c.youtube.com

Видео
Идентификатор                            : 1
Формат                                   : AVC
Формат/Информация                        : Advanced Video Codec
Профиль формата                          : [email protected]
Параметр CABAC формата                   : Да
Параметр ReFrames формата                : 1 кадр
Идентификатор кодека                     : avc1
Идентификатор кодека/Информация          : Advanced Video Coding
Продолжительность                        : 55 м.
Битрейт                                  : 615 Кбит/сек
Максимальный битрейт                     : 5690 Кбит/сек
Ширина                                   : 1280 пикселей
Высота                                   : 624 пикселя
Соотношение сторон                       : 2,051
Режим частоты кадров                     : Постоянный
Частота кадров                           : 30,000 кадров/сек
Цветовое пространство                    : YUV
Субдискретизация насыщенности            : 4:2:0
Битовая глубина                          : 8 бит
Тип развёртки                            : Прогрессивная
Бит/(Пиксели*Кадры)                      : 0.026
Размер потока                            : 245 Мбайт (76%)
Дата пометки                             : UTC 2013-10-13 17:51:30

Аудио
Идентификатор                            : 2
Формат                                   : AAC
Формат/Информация                        : Advanced Audio Codec
Профиль формата                          : LC
Идентификатор кодека                     : 40
Продолжительность                        : 55 м.
Вид битрейта                             : Переменный
Битрейт                                  : 192 Кбит/сек
Максимальный битрейт                     : 201 Кбит/сек
Каналы                                   : 2 канала
Расположение каналов                     : Front: L R
Частота                                  : 44,1 КГц
Метод сжатия                             : С потерями
Размер потока                            : 76,5 Мбайт (24%)
Заголовок                                : IsoMedia File Produced by Google, 5-11-2011
Дата кодирования                         : UTC 2013-10-13 17:49:38
Дата пометки                             : UTC 2013-10-13 17:51:30

Видео
Скриншоты
pic
[rustorka.com]Создание сложных V-Ray материалов для интерьера (2014).torrent
 СЕРЕБРЯНАЯ РАЗДАЧА! СКАЧАННОЕ ЗАСЧИТЫВАЕТСЯ ТОЛЬКО НАПОЛОВИНУ! 
Вечный
Трекер: Зарегистрирован

magnet ссылка

 


Скачать .torrent

149 KB

Статус: проверено (by Арт33 в 02-Июл-15 17:08)
Зарегистрирован: 02-Июл-15 16:48
Скачан: 69 раз
Размер: 8.99 GB | 
Поблагодарили:
Скачать Создание сложных V-Ray материалов для интерьера. Видеокурс [Иван Никитин] (2014, Работа с программами, PCRec) R.G. Мастер-Класс торрент
 


Похожие раздачи

Текущее время: 26-Июн 15:00

Часовой пояс: GMT + 3



Вы не можете начинать темы
Вы не можете отвечать на сообщения
Вы не можете редактировать свои сообщения
Вы не можете удалять свои сообщения
Вы не можете голосовать в опросах
Вы не можете прикреплять файлы к сообщениям
Вы не можете скачивать файлы