Loading...
Error
 

Скачать торрент Комплект мастер-классов по обработке фотографий. [Александр Буленков, Дмитрий Рогожкин, Наталия Мужецкая] (2015, Компьютерная графика, фотошоп, PCRec) R.G. Мастер-Класс

 
Автор Сообщение

Music Listener

post 11-Авг-15 19:08

Специалист по Adobe Photoshop СС


pic
  • Год выпуска: 2015
  • Страна: Россия
  • Тематика: Компьютерная графика, фотошоп
  • Тип материала: Видеокурс
  • Продолжительность: ~12 часов
  • Авторы: Александр Буленков, Дмитрий Рогожкин, Наталия Мужецкая
  • Язык: Русский

    Описание:
    На мастер-классах разбираются техники и методики создания цветокоррекции, стиля, способы тонирования фотографий, важность создания объема и самые важные вопросы, при его прорисовке и многое другое.

    Содержание:
    №1 МАСТЕР-КЛАСС "Цветокоррекция фотографий в Lightroom" от Александра Буленкова.

    ПРОГРАММА МАСТЕР-КЛАССА:
    *Знакомство. Немного о себе.
    *Видение о работе фотографа.
    *Снимаем правильно, легко. обрабатываются качественные кадры.
    *Разбираем рабочие инструменты.
    *Работа с балансом белого.
    *Расширение динамического диапазона.
    *Потоковое тонирование и цветокоррекция.
    *Как сделать серию фотографий в едином стиле.
    *Качественное повышение резкости.
    *Работа с Camera Calibration.
    *Cоздание и оптимизация пресетов под различные условия съемки.
    *Оптимизация на скорость.
    *Cоздание экшенов для потоковой обработке в фотошопе.
    *Особенности света, его температура и интенсивность.

    №2 МАСТЕР-КЛАСС "Художественная обработка фотографий в Photoshop" от Дмитрий Рогожкина.

    ПРОГРАММА МАСТЕР-КЛАССА:
    *Теория получения хорошего фото.
    *Источники вдохновения.
    *Как найти собственный стиль. Где искать свой собственный стиль.
    *Подготовка к работе (техника, почему лайтрум, а не камера рав)
    *Постановка тех. задания (на что обратить внимание, что важно, что неважно)
    *Колористика. Теория цвета.

    Работа в Adobe Lightroom:
    — Подготовка в лайтрум. Работа в basic.
    — Повышение контраста в каждом цветовом канале. Кривые в лайтрум. Кривая в лайтруме , кривая в фотошопе. Узнать чем отличаеться?
    — Работа со SkinTone в HSL.
    — Повышение детализации в лайтрум.
    — Цветовой контраст в Camera Callibration

    Работа в Adobe Photoshop:
    — Элементы коллажирования в фотошоп
    — Прорисовка радужки глаза.
    — Плановость фотографии — проявление фактуры и объема кадра — различные подходы (работа с тоном, светом, цветом)
    — Тонирование в кривых.
    — Работа с объемом D\B
    — Добавление эффектов для передачи атмосферы фотографии: Туман,свет,кисть,Текстуры.
    — Добавление резкости.
    — Оптимизация для Web.

    *Где найти хорошие исходники и как их подбирать.
    *Какова роль обработки? Какое место она занимает в
    *полном цикле изготовления конечного продукта
    *Пример работ "Было"/ "Стало" , обсуждение/разбор.

    №3 МАСТЕР-КЛАСС "Портретная обработка в Photoshop" от Наталии Мужецкой.

    ПРОГРАММА МАСТЕР-КЛАССА:
    *Знакомство, мой путь в фото бизнесе;
    *Теория света, какой свет используется в работе;
    *Роль обработки, и собственный стиль;

    Цветокоррекция в ЛР:
    — базовые настройки, кадрирование, температура, экспозиция, контраст, кривая, резкость и другие несложные махинации;

    Работа в Photoshop:
    — чистка кожи, работаем штампом и лечащей кистью

    Пластика (Liquify)
    — работа с формами;

    Прорисовка объема:
    — работа с масками и кистями;

    Тонирование:
    — три способа тонирования фотографии;

    *Локальная цветокоррекция (масками и кистями), замена
    *текстуры кожи, плагины, и многое другое;
    *Пример работ до и после с пояснениями


  • Качество: PCRec
  • Формат: MP4 (+ доп. материалы)
  • Видео кодек: AVC
  • Аудио кодек: AAC
  • Видео: avc1, 1712x960/1680x1050/2560x1440, ~1014 Kbps, 10-30 fps
  • Аудио: AAC, 48 Hz, 2ch, 113kbps



MediaInfo

Код:

Общее
Полное имя                               : D:\Мастер-Класс\Комплект мастер-классов по обработке фотографий (2015)\Александр Буленков. Цветокоррекция фотографий в Lightroom\Видео 1.mp4
Формат                                   : MPEG-4
Профиль формата                          : Base Media
Идентификатор кодека                     : isom
Размер файла                             : 442 Мбайт
Продолжительность                        : 1 ч. 13 м.
Режим общего битрейта                    : Переменный
Общий поток                              : 843 Кбит/сек
Дата кодирования                         : UTC 2015-06-26 08:05:09
Дата пометки                             : UTC 2015-06-26 08:05:09
Программа кодирования                    : FormatFactory : http://www.pcfreetime.com

Видео
Идентификатор                            : 1
Формат                                   : MPEG-4 Visual
Профиль формата                          : [email protected]
Параметр BVOP формата                    : Нет
Параметр QPel формата                    : Нет
Параметр GMC формата                     : Без точки перехода
Параметр матрицы формата                 : Default (H.263)
Идентификатор кодека                     : 20
Продолжительность                        : 1 ч. 13 м.
Вид битрейта                             : Переменный
Битрейт                                  : 726 Кбит/сек
Максимальный битрейт                     : 21,4 Мбит/сек
Ширина                                   : 1712 пикселей
Высота                                   : 960 пикселей
Соотношение сторон                       : 16:9
Режим частоты кадров                     : Постоянный
Частота кадров                           : 30,000 кадров/сек
Цветовое пространство                    : YUV
Субдискретизация насыщенности            : 4:2:0
Битовая глубина                          : 8 бит
Тип развёртки                            : Прогрессивная
Метод сжатия                             : С потерями
Бит/(Пиксели*Кадры)                      : 0.015
Размер потока                            : 381 Мбайт (86%)
Библиотека кодирования                   : Lavc53.8.0
Дата кодирования                         : UTC 2015-06-26 08:05:09
Дата пометки                             : UTC 2015-06-26 08:05:26

Аудио
Идентификатор                            : 2
Формат                                   : AAC
Формат/Информация                        : Advanced Audio Codec
Профиль формата                          : LC
Идентификатор кодека                     : 40
Продолжительность                        : 1 ч. 13 м.
Вид битрейта                             : Переменный
Битрейт                                  : 114 Кбит/сек
Максимальный битрейт                     : 143 Кбит/сек
Каналы                                   : 2 канала
Расположение каналов                     : Front: L R
Частота                                  : 44,1 КГц
Метод сжатия                             : С потерями
Размер потока                            : 59,9 Мбайт (14%)
Дата кодирования                         : UTC 2015-06-26 08:05:20
Дата пометки                             : UTC 2015-06-26 08:05:26

Скриншоты
     
pic
[rustorka.com]Комплект мастер-классов по обработке фотографий (2015).torrent
 СЕРЕБРЯНАЯ РАЗДАЧА! СКАЧАННОЕ ЗАСЧИТЫВАЕТСЯ ТОЛЬКО НАПОЛОВИНУ! 
Вечный
Трекер: Зарегистрирован

magnet ссылка

 


Скачать .torrent

49 KB

Статус: проверено (by Арт33 в 11-Авг-15 19:12)
Зарегистрирован: 11-Авг-15 19:08
Скачан: 77 раз
Размер: 8.5 GB | 
Поблагодарили:
Скачать Комплект мастер-классов по обработке фотографий. [Александр Буленков, Дмитрий Рогожкин, Наталия Мужецкая] (2015, Компьютерная графика, фотошоп, PCRec) R.G. Мастер-Класс торрент
 


Похожие раздачи

Текущее время: 26-Июн 15:30

Часовой пояс: GMT + 3



Вы не можете начинать темы
Вы не можете отвечать на сообщения
Вы не можете редактировать свои сообщения
Вы не можете удалять свои сообщения
Вы не можете голосовать в опросах
Вы не можете прикреплять файлы к сообщениям
Вы не можете скачивать файлы