Loading...
Error
 

Скачать торрент (New Age , Electronic) Enigma - Дискография (1990 - 2009), WAVPack (image + .cue), lossless

 
Автор Сообщение

Theseus

post 22-Окт-10 22:13


pic

pic
Год выпуска: 1990 - 2009

Жанр: New Age , Electronic

Продолжительность: 51 CD, 36:29:10

Тип издания:Альбомы/Бутлеги/Официальные сборники/Синглы


Треклист
ALBUMS
01 - MCMXC a.D. - 1990
pic
Исполнитель: Enigma
Альбом: MCMXC a.D.
Тип релиза: Студийная запись
Жанр: New Age
Дата выпуска: 1990
Страна: EU
Формат: WV (image+cue)
Битрейт: 805 kbps
Продолжительность: 00:40:15

Треклист:
01. The Voice Of Enigma [00:02:21]
02. Principles Of Lust [00:11:43]
03. Callas Went Away [00:04:29]
04. Mea Culpa [00:05:01]
05. The Voice & The Snake [00:01:41]
06. Knocking On Forbidden Doors [00:04:22]
07. Back To The Rivers Of Belief [00:10:36]
Отчёт EAC
Exact Audio Copy V0.99 prebeta 4 from 23. January 2008

Отчёт EAC об извлечении, выполненном 9. ноября 2009, 16:17

Enigma / MCMXC a.D.

Дисковод: PIONEER DVD-RW DVR-115D Adapter: 0 ID: 0

Режим чтения : Достоверность
Использование точного потока : Да
Отключение кэша аудио : Да
Использование указателей C2 : Нет

Коррекция смещения при чтении : 48
Способность читать области Lead-in и Lead-out : Нет
Заполнение пропущенных сэмплов тишиной : Да
Удаление блоков с тишиной в начале и конце : Нет
При вычислениях CRC использовались нулевые сэмплы : Да
Интерфейс : Установленный внешний ASPI-интерфейс

Выходной формат : Внутренние WAV-операции
Формат сэмплов : 44.100 Гц; 16 бит; стерео
Смещение при сжатии : 6

TOC извлечённого CD

Трек | Старт | Длительность | Начальный сектор | Конечный сектор
---------------------------------------------------------------------
1 | 0:00.33 | 2:21.37 | 33 | 10644
2 | 2:21.70 | 11:43.10 | 10645 | 63379
3 | 14:05.05 | 4:29.28 | 63380 | 83582
4 | 18:34.33 | 5:01.25 | 83583 | 106182
5 | 23:35.58 | 1:41.05 | 106183 | 113762
6 | 25:16.63 | 4:22.50 | 113763 | 133462
7 | 29:39.38 | 10:36.20 | 133463 | 181182

Характеристики диапазона извлечения и сообщения об ошибках

Выбранный диапазон

Имя файла J:\Enigma - Discography\ENIGMA-DiscographY.(plus).1990-2008\1 - MCMXC a.D. (1990)\Enigma - MCMXC a.D..wav

Пиковый уровень 100.0 %
Качество диапазона 99.9 %
CRC копии 316A10B1
Копирование... OK

Ошибок не произошло

Конец отчёта
02 - MCMXC a.D. - The Limited Edition - 1991
pic
Исполнитель: Enigma
Альбом: MCMXC a.D. - The Limited Edition
Тип релиза: Студийная запись
Жанр: New Age
Дата выпуска: 1991
Страна: EU
Формат: WV (image+cue)
Битрейт: 850 kbps
Продолжительность: 01:00:26

Треклист:
01. The voice of Enigma [00:02:08]
02. Principles of lust a) Sadeness [00:04:15]
03. Principles of lust b) Find Love [00:04:49]
04. Principles of lust c) Sadeness (Reprise) [00:02:48]
05. Callas went away [00:04:29]
06. Mea culpa [00:04:52]
07. The voice & the snake [00:01:45]
08. Knocking on forbidden doors [00:04:27]
09. Back to the rivers of belief a) way to eternity [00:02:19]
10. Back to the rivers of belief b) Hallelujah [00:04:15]
11. Back to the rivers of belief c) The rivers of belief [00:03:31]
12. Sadeness (Meditation) [00:02:43]
13. Mea culpa (Fading shades) [00:06:04]
14. Principles of lust (Everlasting lust) [00:04:50]
15. The rivers of belief (The returning dilence) [00:07:04]
Отчёт EAC
Exact Audio Copy V0.99 prebeta 5 from 4. May 2009

Отчёт EAC об извлечении, выполненном 30. декабря 2009, 18:21

Enigma / MCMXC a.D. - The Limited Edition

Дисковод: PIONEER DVD-RW DVR-115D Adapter: 0 ID: 0

Режим чтения : Достоверность
Использование точного потока : Да
Отключение кэша аудио : Да
Использование указателей C2 : Нет

Коррекция смещения при чтении : 48
Способность читать области Lead-in и Lead-out : Нет
Заполнение пропущенных сэмплов тишиной : Да
Удаление блоков с тишиной в начале и конце : Нет
При вычислениях CRC использовались нулевые сэмплы : Да
Интерфейс : Установленный внешний ASPI-интерфейс

Выходной формат : Внутренние WAV-операции
Формат сэмплов : 44.100 Гц; 16 бит; стерео
Смещение при сжатии : 6

TOC извлечённого CD

Трек | Старт | Длительность | Начальный сектор | Конечный сектор
---------------------------------------------------------------------
1 | 0:00.33 | 2:08.32 | 33 | 9664
2 | 2:08.65 | 4:15.55 | 9665 | 28844
3 | 6:24.45 | 4:49.40 | 28845 | 50559
4 | 11:14.10 | 2:48.55 | 50560 | 63214
5 | 14:02.65 | 4:29.33 | 63215 | 83422
6 | 18:32.23 | 4:53.02 | 83423 | 105399
7 | 23:25.25 | 1:45.40 | 105400 | 113314
8 | 25:10.65 | 4:27.50 | 113315 | 133389
9 | 29:38.40 | 2:19.15 | 133390 | 143829
10 | 31:57.55 | 4:15.20 | 143830 | 162974
11 | 36:13.00 | 3:31.73 | 162975 | 178872
12 | 39:44.73 | 2:43.60 | 178873 | 191157
13 | 42:28.58 | 6:04.15 | 191158 | 218472
14 | 48:32.73 | 4:50.55 | 218473 | 240277
15 | 53:23.53 | 7:04.17 | 240278 | 272094

Характеристики диапазона извлечения и сообщения об ошибках

Выбранный диапазон

Имя файла J:\ENIGMA-DiscographY.(plus).1990-2009\ENIGMA-1991-MCMXC a.D. (Limited Edition).iso.wv\Enigma - MCMXC a.D. - The Limited Edition.wav

Пиковый уровень 99.0 %
Качество диапазона 100.0 %
CRC копии AF879277
Копирование... OK

Ошибок не произошло

Все треки извлечены точно

Конец отчёта
03 - The Cross Of Changes - 1993
pic
Исполнитель: Enigma
Альбом: The Cross Of Changes
Тип релиза: Студийная запись
Жанр: New Age
Дата выпуска: 1993
Страна: EU
Формат: WV (image+cue)
Битрейт: 858 kbps
Продолжительность: 00:44:14

Треклист:
01. Second Chapter [00:02:15]
02. The Eyes Of Truth [00:07:14]
03. Return To Innocence [00:04:15]
04. I Love You...I'll Kill You [00:08:52]
05. Silent Warrior [00:06:09]
06. The Dream Of The Dolphin [00:02:47]
07. Age Og Loneliness (Carly's Song) [00:05:21]
08. Out From The Deep [00:04:53]
09. The Cross Of Changes [00:02:24]
Отчёт EAC
EAC extraction logfile from 29. June 2006, 10:25 for CD
Enigma / The Cross Of Changes (Amazon)

Used drive : XXX Adapter: 0 ID: 1
Read mode : Secure with NO C2, accurate stream, disable cache
Read offset correction : 30
Overread into Lead-In and Lead-Out : Yes

Used output format : Internal WAV Routines
44.100 Hz; 16 Bit; Stereo

Other options :
Fill up missing offset samples with silence : Yes
Delete leading and trailing silent blocks : No
Native Win32 interface for Win NT & 2000

Range status and errors
Selected range
Filename C:\Enigma\The Cross Of Changes\CDImage.wav

Peak level 99.0 %
Range quality 100.0 %
CRC F028F06A
Copy OK

No errors occured

End of status report
04 - The Cross Of Changes (Special Edition) - 1994
pic
Исполнитель: Enigma
Альбом: The Cross Of Changes (Special Edition)
Тип релиза: Студийная запись
Жанр: New Age
Дата выпуска: 1994
Страна: EU
Формат: WV (image+cue)
Битрейт: 884 kbps
Продолжительность: 01:04:59

Треклист:
01. Second Chapter [00:02:15]
02. The Eyes Of Truth [00:07:14]
03. Return To Innocence [00:04:15]
04. I Love You... I'll Kill You [00:08:52]
05. Silent Warrior [00:06:09]
06. The Dream Of The Dolphin [00:02:47]
07. Age Of Loneliness (Carly's Song) [00:05:21]
08. Out From The Deep [00:04:52]
09. The Cross Of Changes [00:02:24]
10. Return To Innocence (Long & Alive Version) [00:07:06]
11. Age Of Loneliness (Enigmatic Club Mix) [00:06:21]
12. The Eyes Of Truth (The Goetterdaemmerung Mix) [00:07:17]
Отчёт EAC
Exact Audio Copy V0.99 prebeta 5 from 4. May 2009

Отчёт EAC об извлечении, выполненном 30. декабря 2009, 18:50

Enigma / The Cross Of Changes (Special Edition)

Дисковод: PIONEER DVD-RW DVR-115D Adapter: 0 ID: 0

Режим чтения : Достоверность
Использование точного потока : Да
Отключение кэша аудио : Да
Использование указателей C2 : Нет

Коррекция смещения при чтении : 48
Способность читать области Lead-in и Lead-out : Нет
Заполнение пропущенных сэмплов тишиной : Да
Удаление блоков с тишиной в начале и конце : Нет
При вычислениях CRC использовались нулевые сэмплы : Да
Интерфейс : Установленный внешний ASPI-интерфейс

Выходной формат : Внутренние WAV-операции
Формат сэмплов : 44.100 Гц; 16 бит; стерео
Смещение при сжатии : 6

TOC извлечённого CD

Трек | Старт | Длительность | Начальный сектор | Конечный сектор
---------------------------------------------------------------------
1 | 0:00.32 | 2:15.23 | 32 | 10179
2 | 2:15.55 | 7:14.35 | 10180 | 42764
3 | 9:30.15 | 4:15.35 | 42765 | 61924
4 | 13:45.50 | 8:52.43 | 61925 | 101867
5 | 22:38.18 | 6:09.51 | 101868 | 129593
6 | 28:47.69 | 2:47.29 | 129594 | 142147
7 | 31:35.23 | 5:21.38 | 142148 | 166260
8 | 36:56.61 | 4:53.07 | 166261 | 188242
9 | 41:49.68 | 2:25.60 | 188243 | 199177
10 | 44:15.53 | 7:06.58 | 199178 | 231185
11 | 51:22.36 | 6:22.51 | 231186 | 259886
12 | 57:45.12 | 7:18.01 | 259887 | 292737

Характеристики диапазона извлечения и сообщения об ошибках

Выбранный диапазон

Имя файла J:\ENIGMA-DiscographY.(plus).1990-2009\ENIGMA-1994-The CROSS of Changes (Special Edition)\Enigma - The Cross Of Changes (Special Edition).wav

Пиковый уровень 100.0 %
Качество диапазона 100.0 %
CRC копии 07528F8A
Копирование... OK

Ошибок не произошло

Конец отчёта
05 - Le Roi Est Mort, Vive Le Roi! - 1996
pic
Исполнитель: Enigma
Альбом: Le Roi Est Mort, Vive Le Roi!
Тип релиза: Студийная запись
Жанр: New Age
Дата выпуска: 1996
Страна: EU
Формат: WV (image+cue)
Битрейт: 848 kbps
Продолжительность: 00:45:38

Треклист:
01. Le Roi Est Mort, Vive Le Roi! [00:01:57]
02. Morphing Thru Time [00:05:47]
03. Third of its Kind [00:00:19]
04. Beyond the Invisible [00:05:00]
05. Why! ... [00:04:59]
06. Shadows in Silence [00:04:21]
07. The Child in Us [00:05:06]
08. T.N.T. for the Brain [00:04:26]
09. Almost Full Moon [00:03:26]
10. The Roundabout [00:03:38]
11. Prism of Life [00:04:55]
12. Odyssey of the Mind [00:01:40]
Отчёт EAC
EAC extraction logfile from 29. June 2006, 10:55 for CD
Enigma / Le Roi Est Mort, Vive Le Roi! (Amazon Box)

Used drive : XXX Adapter: 0 ID: 1
Read mode : Secure with NO C2, accurate stream, disable cache
Read offset correction : 30
Overread into Lead-In and Lead-Out : Yes

Used output format : Internal WAV Routines
44.100 Hz; 16 Bit; Stereo

Other options :
Fill up missing offset samples with silence : Yes
Delete leading and trailing silent blocks : No
Native Win32 interface for Win NT & 2000

Range status and errors
Selected range
Filename C:\Enigma\Le Roi Est Mort, Vive Le Roi!\CDImage.wav

Peak level 100.0 %
Range quality 100.0 %
CRC F3CD9BF2
Copy OK

No errors occured

End of status report
06 - The Screen Behind the Mirror - 2000
pic
Исполнитель: Enigma
Альбом: The Screen Behind the Mirror
Тип релиза: Студийная запись
Жанр: New Age
Дата выпуска: 2000
Страна: EU
Формат: WV (image+cue)
Битрейт: 844 kbps
Продолжительность: 00:43:30

Треклист:
01. The Gate [00:02:04]
02. Push the Limits [00:06:26]
03. Gravity of Love [00:03:58]
04. Smell of Desire [00:04:57]
05. Modern Crusaders [00:03:50]
06. Traces (Light and Weight) [00:04:11]
07. The Screen Behind the Mirror [00:03:58]
08. Endless Quest [00:03:06]
09. Camera Obscura [00:01:27]
10. Between Mind & Heart [00:04:09]
11. Silence Must Be Heard [00:05:19]
Отчёт EAC
Exact Audio Copy V0.99 prebeta 5 from 4. May 2009

Отчёт EAC об извлечении, выполненном 25. апреля 2010, 12:30

Enigma / The Screen Behind the Mirror

Дисковод: PIONEER DVD-RW DVR-115D Adapter: 0 ID: 0

Режим чтения : Достоверность
Использование точного потока : Да
Отключение кэша аудио : Да
Использование указателей C2 : Нет

Коррекция смещения при чтении : 48
Способность читать области Lead-in и Lead-out : Нет
Заполнение пропущенных сэмплов тишиной : Да
Удаление блоков с тишиной в начале и конце : Нет
При вычислениях CRC использовались нулевые сэмплы : Да
Интерфейс : Установленный внешний ASPI-интерфейс

Выходной формат : Внутренние WAV-операции
Формат сэмплов : 44.100 Гц; 16 бит; стерео
Смещение при сжатии : 6

TOC извлечённого CD

Трек | Старт | Длительность | Начальный сектор | Конечный сектор
---------------------------------------------------------------------
1 | 0:00.32 | 2:04.25 | 32 | 9356
2 | 2:04.57 | 6:26.68 | 9357 | 38374
3 | 8:31.50 | 3:58.56 | 38375 | 56280
4 | 12:30.31 | 4:57.28 | 56281 | 78583
5 | 17:27.59 | 3:50.37 | 78584 | 95870
6 | 21:18.21 | 4:11.53 | 95871 | 114748
7 | 25:29.74 | 3:58.56 | 114749 | 132654
8 | 29:28.55 | 3:06.15 | 132655 | 146619
9 | 32:34.70 | 1:27.65 | 146620 | 153209
10 | 34:02.60 | 4:09.54 | 153210 | 171938
11 | 38:12.39 | 5:19.24 | 171939 | 195887

Характеристики диапазона извлечения и сообщения об ошибках

Выбранный диапазон

Имя файла J:\ENIGMA-DiscographY.(plus).1990-2008\ENIGMA-2000-The.Screen.Behind.the.Mirror.(eac.wv.cue.log.lirycs.covers).iso.wv\Enigma - The Screen Behind the Mirror.wav

Пиковый уровень 99.0 %
Качество диапазона 100.0 %
CRC копии 6B790499
Копирование... OK

Ошибок не произошло

Конец отчёта
07 - Voyageur - 2003
pic
Исполнитель: Enigma
Альбом: Voyageur
Тип релиза: Студийная запись
Жанр: New Age
Дата выпуска: 2003
Страна: EU
Формат: WV (image+cue)
Битрейт: 821 kbps
Продолжительность: 00:47:19

Треклист:
01. From East To West [00:04:11]
02. Voyageur [00:04:36]
03. Incognito [00:04:23]
04. Page Of Cups [00:07:01]
05. Boum-Boum [00:04:29]
06. Total Eclipse Of The Moon [00:02:16]
07. Look Of Today [00:03:43]
08. In The Shadow, In The Light [00:05:35]
09. Weightless [00:02:15]
10. The Piano [00:03:00]
11. Following The Sun [00:05:47]
Отчёт EAC
Exact Audio Copy V0.99 prebeta 5 from 4. May 2009

Отчёт EAC об извлечении, выполненном 25. апреля 2010, 15:09

Enigma / Voyageur

Дисковод: SCSIVAX DVD/CD-ROM Adapter: 4 ID: 0

Режим чтения : Достоверность
Использование точного потока : Да
Отключение кэша аудио : Да
Использование указателей C2 : Нет

Коррекция смещения при чтении : 0
Способность читать области Lead-in и Lead-out : Нет
Заполнение пропущенных сэмплов тишиной : Да
Удаление блоков с тишиной в начале и конце : Нет
При вычислениях CRC использовались нулевые сэмплы : Да
Интерфейс : Установленный внешний ASPI-интерфейс

Выходной формат : Внутренние WAV-операции
Формат сэмплов : 44.100 Гц; 16 бит; стерео
Смещение при сжатии : 6

TOC извлечённого CD

Трек | Старт | Длительность | Начальный сектор | Конечный сектор
---------------------------------------------------------------------
1 | 0:00.32 | 4:11.35 | 32 | 18891
2 | 4:11.67 | 4:36.35 | 18892 | 39626
3 | 8:48.27 | 4:23.18 | 39627 | 59369
4 | 13:11.45 | 7:01.14 | 59370 | 90958
5 | 20:12.59 | 4:29.05 | 90959 | 111138
6 | 24:41.64 | 2:16.61 | 111139 | 121399
7 | 26:58.50 | 3:43.25 | 121400 | 138149
8 | 30:42.00 | 5:35.17 | 138150 | 163291
9 | 36:17.17 | 2:15.25 | 163292 | 173441
10 | 38:32.42 | 3:00.20 | 173442 | 186961
11 | 41:32.62 | 5:47.70 | 186962 | 213056

Характеристики диапазона извлечения и сообщения об ошибках

Выбранный диапазон

Имя файла J:\Enigma - Discography\ENIGMA-DiscographY.(plus).1990-2008\[_ALBUMS_]\ENIGMA-2003-Voyageur.(eac.wv.cue.log.lirycs.covers)\Enigma - Voyageur.wav

Пиковый уровень 100.0 %
Качество диапазона 100.0 %
CRC копии 8F3FD118
Копирование... OK

Ошибок не произошло

Конец отчёта
08 - A Posteriori - 2006
pic
Исполнитель: Enigma
Альбом: A Posteriori
Тип релиза: Студийная запись
Жанр: New Age
Дата выпуска: 2006
Страна: EU
Формат: WV (image+cue)
Битрейт: 831 kbps
Продолжительность: 00:53:40

Треклист:
01. Eppur Si Muove [00:03:41]
02. Feel Me Heaven [00:04:50]
03. Dreaming of Andromeda [00:04:26]
04. Dancing With Mephisto [00:04:25]
05. Northern Lights [00:03:39]
06. Invisible Love [00:04:55]
07. Message From IO [00:03:09]
08. Hello and Welcome [00:05:08]
09. 20,000 Miles Over the Sea [00:04:22]
10. Sitting on the Moon [00:04:21]
11. The Alchemist [00:04:41]
12. Goodbye Milky Way [00:05:57]
Отчёт EAC
Exact Audio Copy V0.99 prebeta 5 from 4. May 2009

Отчёт EAC об извлечении, выполненном 25. апреля 2010, 16:29

Enigma / A Posteriori

Дисковод: SCSIVAX DVD/CD-ROM Adapter: 4 ID: 0

Режим чтения : Достоверность
Использование точного потока : Да
Отключение кэша аудио : Да
Использование указателей C2 : Нет

Коррекция смещения при чтении : 0
Способность читать области Lead-in и Lead-out : Нет
Заполнение пропущенных сэмплов тишиной : Да
Удаление блоков с тишиной в начале и конце : Нет
При вычислениях CRC использовались нулевые сэмплы : Да
Интерфейс : Установленный внешний ASPI-интерфейс

Выходной формат : Внутренние WAV-операции
Формат сэмплов : 44.100 Гц; 16 бит; стерео
Смещение при сжатии : 6

TOC извлечённого CD

Трек | Старт | Длительность | Начальный сектор | Конечный сектор
---------------------------------------------------------------------
1 | 0:00.00 | 3:41.12 | 0 | 16586
2 | 3:41.12 | 4:50.11 | 16587 | 38347
3 | 8:31.23 | 4:26.04 | 38348 | 58301
4 | 12:57.27 | 4:25.24 | 58302 | 78200
5 | 17:22.51 | 3:39.70 | 78201 | 94695
6 | 21:02.46 | 4:55.27 | 94696 | 116847
7 | 25:57.73 | 3:09.67 | 116848 | 131089
8 | 29:07.65 | 5:08.49 | 131090 | 154238
9 | 34:16.39 | 4:23.06 | 154239 | 173969
10 | 38:39.45 | 4:21.33 | 173970 | 193577
11 | 43:01.03 | 4:41.26 | 193578 | 214678
12 | 47:42.29 | 5:58.02 | 214679 | 241530

Характеристики диапазона извлечения и сообщения об ошибках

Выбранный диапазон

Имя файла J:\Enigma - Discography\ENIGMA-DiscographY.(plus).1990-2008\[_ALBUMS_]\ENIGMA-2006-A.Posteriori.(eac.wv.cue.log.lirycs.covers).iso.wv\Enigma - A Posteriori.wav

Пиковый уровень 99.6 %
Качество диапазона 100.0 %
CRC копии 12385734
Копирование... OK

Ошибок не произошло

Конец отчёта
09 - Seven Lives Many Faces - 2008
pic
Исполнитель: Enigma
Альбом: Seven Lives Many Faces
Тип релиза: Студийная запись
Жанр: New Age*
Дата выпуска: 2008
Страна: EU
Формат: WV (image+cue)
Битрейт: 802 kbps
Продолжительность: 00:47:35

Треклист:
01. Encounters [00:03:12]
02. Seven Lives [00:04:25]
03. Touchness [00:03:35]
04. The Same Parents [00:05:19]
05. Fata Morgana [00:03:23]
06. Hell's Heaven [00:03:51]
07. La Puerta Del Cielo [00:03:28]
08. Distorted Love [00:04:11]
09. Je T'aime Till My Dying Day [00:04:18]
10. Deja Vu [00:02:56]
11. Between Generations [00:04:31]
12. The Language Of Sound [00:04:20]
Отчёт EAC
Exact Audio Copy V0.99 prebeta 5 from 4. May 2009

Отчёт EAC об извлечении, выполненном 25. апреля 2010, 23:51

Enigma / Seven Lives Many Faces

Дисковод: PIONEER DVD-RW DVR-115D Adapter: 0 ID: 0

Режим чтения : Достоверность
Использование точного потока : Да
Отключение кэша аудио : Да
Использование указателей C2 : Нет

Коррекция смещения при чтении : 48
Способность читать области Lead-in и Lead-out : Нет
Заполнение пропущенных сэмплов тишиной : Да
Удаление блоков с тишиной в начале и конце : Нет
При вычислениях CRC использовались нулевые сэмплы : Да
Интерфейс : Установленный внешний ASPI-интерфейс

Выходной формат : Внутренние WAV-операции
Формат сэмплов : 44.100 Гц; 16 бит; стерео
Смещение при сжатии : 6

TOC извлечённого CD

Трек | Старт | Длительность | Начальный сектор | Конечный сектор
---------------------------------------------------------------------
1 | 0:00.00 | 3:12.61 | 0 | 14460
2 | 3:12.61 | 4:25.21 | 14461 | 34356
3 | 7:38.07 | 3:35.63 | 34357 | 50544
4 | 11:13.70 | 5:19.55 | 50545 | 74524
5 | 16:33.50 | 3:23.44 | 74525 | 89793
6 | 19:57.19 | 3:51.39 | 89794 | 107157
7 | 23:48.58 | 3:28.20 | 107158 | 122777
8 | 27:17.03 | 4:11.38 | 122778 | 141640
9 | 31:28.41 | 4:18.69 | 141641 | 161059
10 | 35:47.35 | 2:56.19 | 161060 | 174278
11 | 38:43.54 | 4:31.34 | 174279 | 194637
12 | 43:15.13 | 4:20.60 | 194638 | 214197

Характеристики диапазона извлечения и сообщения об ошибках

Выбранный диапазон

Имя файла J:\Enigma - Discography\ENIGMA-DiscographY.(plus).1990-2008\[_ALBUMS_]\ENIGMA-2008-Seven.Lives.Many.Faces.iso\Enigma - Seven Lives Many Faces.wav

Пиковый уровень 99.9 %
Качество диапазона 100.0 %
CRC копии 31C41813
Копирование... OK

Ошибок не произошло

Конец отчёта
10 - Seven Lives Many Faces (Limited Edition) (CD1) - 2008
pic
Исполнитель: Enigma
Альбом: Seven Lives Many Faces (Limited Edition) (CD1)
Тип релиза: Студийная запись
Жанр: New Age*
Дата выпуска: 2008
Страна: EU
Формат: WV (image+cue)
Битрейт: 802 kbps
Продолжительность: 00:47:35

Треклист:
01. Encounters [00:03:12]
02. Seven Lives [00:04:25]
03. Touchness [00:03:35]
04. The Same Parents [00:05:19]
05. Fata Morgana [00:03:23]
06. Hell's Heaven [00:03:51]
07. La Puerta Del Cielo [00:03:28]
08. Distorted Love [00:04:11]
09. Je T'aime Till My Dying Day [00:04:18]
10. Deja Vu [00:02:56]
11. Between Generations [00:04:31]
12. The Language Of Sound [00:04:20]
Отчёт EAC
Exact Audio Copy V0.99 prebeta 5 from 4. May 2009

Отчёт EAC об извлечении, выполненном 25. апреля 2010, 22:46

Enigma / Seven Lives Many Faces (CD1)

Дисковод: PIONEER DVD-RW DVR-115D Adapter: 0 ID: 0

Режим чтения : Достоверность
Использование точного потока : Да
Отключение кэша аудио : Да
Использование указателей C2 : Нет

Коррекция смещения при чтении : 48
Способность читать области Lead-in и Lead-out : Нет
Заполнение пропущенных сэмплов тишиной : Да
Удаление блоков с тишиной в начале и конце : Нет
При вычислениях CRC использовались нулевые сэмплы : Да
Интерфейс : Установленный внешний ASPI-интерфейс

Выходной формат : Внутренние WAV-операции
Формат сэмплов : 44.100 Гц; 16 бит; стерео
Смещение при сжатии : 6

TOC извлечённого CD

Трек | Старт | Длительность | Начальный сектор | Конечный сектор
---------------------------------------------------------------------
1 | 0:00.00 | 3:12.61 | 0 | 14460
2 | 3:12.61 | 4:25.21 | 14461 | 34356
3 | 7:38.07 | 3:35.63 | 34357 | 50544
4 | 11:13.70 | 5:19.55 | 50545 | 74524
5 | 16:33.50 | 3:23.44 | 74525 | 89793
6 | 19:57.19 | 3:51.39 | 89794 | 107157
7 | 23:48.58 | 3:28.20 | 107158 | 122777
8 | 27:17.03 | 4:11.38 | 122778 | 141640
9 | 31:28.41 | 4:18.69 | 141641 | 161059
10 | 35:47.35 | 2:56.19 | 161060 | 174278
11 | 38:43.54 | 4:31.34 | 174279 | 194637
12 | 43:15.13 | 4:20.60 | 194638 | 214197

Характеристики диапазона извлечения и сообщения об ошибках

Выбранный диапазон

Имя файла J:\Enigma - Discography\ENIGMA-DiscographY.(plus).1990-2008\[_ALBUMS_]\ENIGMA-2008-Seven.Lives.Many.Faces.(Limited.Edition).CD1.(eac.wv.cue.log.lirycs.covers).iso\Enigma - Seven Lives Many Faces (CD1).wav

Пиковый уровень 99.9 %
Качество диапазона 100.0 %
CRC копии 539FA2A0
Копирование... OK

Ошибок не произошло

Конец отчёта
11 - Seven Lives Many Faces (Limited Edition) (CD2) - 2008
pic
Исполнитель: Enigma
Альбом: Seven Lives Many Faces (Limited Edition) (CD2)
Тип релиза: Студийная запись
Жанр: Electronic
Дата выпуска: 2008
Страна: EU
Формат: WV (image+cue)
Битрейт: 820 kbps
Продолжительность: 00:15:32

Треклист:
01. Superficial [00:02:58]
02. We Are Nature [00:03:51]
03. Downtown Silence [00:02:08]
04. Sunrise [00:02:38]
05. The Language Of Sound (Slow Edit) [00:03:56]
Отчёт EAC
Exact Audio Copy V0.99 prebeta 5 from 4. May 2009

Отчёт EAC об извлечении, выполненном 25. апреля 2010, 23:39

Enigma / Seven Lives Many Faces (Limited Edition) (CD2)

Дисковод: PIONEER DVD-RW DVR-115D Adapter: 0 ID: 0

Режим чтения : Достоверность
Использование точного потока : Да
Отключение кэша аудио : Да
Использование указателей C2 : Нет

Коррекция смещения при чтении : 48
Способность читать области Lead-in и Lead-out : Нет
Заполнение пропущенных сэмплов тишиной : Да
Удаление блоков с тишиной в начале и конце : Нет
При вычислениях CRC использовались нулевые сэмплы : Да
Интерфейс : Установленный внешний ASPI-интерфейс

Выходной формат : Внутренние WAV-операции
Формат сэмплов : 44.100 Гц; 16 бит; стерео
Смещение при сжатии : 6

TOC извлечённого CD

Трек | Старт | Длительность | Начальный сектор | Конечный сектор
---------------------------------------------------------------------
1 | 0:00.00 | 2:58.21 | 0 | 13370
2 | 2:58.21 | 3:51.25 | 13371 | 30720
3 | 6:49.46 | 2:08.20 | 30721 | 40340
4 | 8:57.66 | 2:38.10 | 40341 | 52200
5 | 11:36.01 | 3:56.57 | 52201 | 69957

Характеристики диапазона извлечения и сообщения об ошибках

Выбранный диапазон

Имя файла J:\Enigma - Discography\ENIGMA-DiscographY.(plus).1990-2008\[_ALBUMS_]\ENIGMA-2008-Seven.Lives.Many.Faces.(Limited.Edition).CD2.[CD-Extra].iso\Enigma - Seven Lives Many Faces (Limited Edition) (CD2).wav

Пиковый уровень 99.0 %
Качество диапазона 99.9 %
CRC копии 0C2E799C
Копирование... OK

Ошибок не произошло

Конец отчёта

BOOTLEGS
12 - Best - 1980
pic
Исполнитель: Enigma
Альбом: Best
Тип релиза: Бутлег [Bootleg]
Жанр: New Age
Дата выпуска: 1980
Страна: EU
Формат: WV (image+cue)
Битрейт: 838 kbps
Продолжительность: 01:13:48

Треклист:
01. Beyond The Invisible [00]
02. Principles Of Lust [00]
03. Return To Innocence [00]
04. Why! [00]
05. Mea Culpa [00]
06. Out From The Deep [00]
07. T.N.T. For The Brain [00]
08. Back To The Rivers Of Belief [00]
09. The Roundabout [00]
10. The Eyes Of Truth [00]
11. The Child In Us [00]
12. Light Of Your Smile [00]
Отчёт EAC
Exact Audio Copy V0.99 prebeta 4 from 23. January 2008

Отчёт EAC об извлечении, выполненном 25. января 2009, 12:24

Enigma / Best

Дисковод: ASUS DRW-1814BL Adapter: 3 ID: 1

Режим чтения : Достоверность
Использование точного потока : Да
Отключение кэша аудио : Да
Использование указателей C2 : Нет

Коррекция смещения при чтении : 6
Способность читать области Lead-in и Lead-out : Нет
Заполнение пропущенных сэмплов тишиной : Да
Удаление блоков с тишиной в начале и конце : Нет
При вычислениях CRC использовались нулевые сэмплы : Да
Интерфейс : Установленный внешний ASPI-интерфейс

Выходной формат : Внутренние WAV-операции
Формат сэмплов : 44.100 Гц; 16 бит; стерео

TOC извлечённого CD

Трек | Старт | Длительность | Начальный сектор | Конечный сектор
---------------------------------------------------------------------
1 | 0:00.30 | 5:13.42 | 30 | 23546
2 | 5:13.72 | 12:37.23 | 23547 | 80344
3 | 17:51.20 | 4:30.56 | 80345 | 100650
4 | 22:22.01 | 5:23.17 | 100651 | 124892
5 | 27:45.18 | 5:31.25 | 124893 | 149742
6 | 33:16.43 | 5:17.63 | 149743 | 173580
7 | 38:34.31 | 4:43.47 | 173581 | 194852
8 | 43:18.03 | 8:23.13 | 194853 | 232590
9 | 51:41.16 | 3:58.68 | 232591 | 250508
10 | 55:40.09 | 7:33.68 | 250509 | 284551
11 | 63:14.02 | 5:17.16 | 284552 | 308342
12 | 68:31.18 | 5:17.31 | 308343 | 332148

Характеристики диапазона извлечения и сообщения об ошибках

Выбранный диапазон

Имя файла E:\AUDIO\en\Enigma - Best.wav

Пиковый уровень 82.3 %
Качество диапазона 100.0 %
CRC копии B769EA3F
Копирование... OK

Ошибок не произошло

Конец отчёта
13 - Metamorphosis - 1998
pic
Исполнитель: Enigma [Fake]
Альбом: Metamorphosis
Тип релиза: Бутлег [Bootleg]
Жанр: New Age
Дата выпуска: 1998
Страна: EU
Формат: WV (image+cue)
Битрейт: 783 kbps
Продолжительность: 01:08:30

Треклист:
01. IV Chapter [00]
02. Light Of Your Smile [00]
03. Metamorphosis [00]
04. Start-To-End [00]
05. Responsorium I [00]
06. Snow Of The Sahara [00]
07. Sensing The Spheres [00]
08. Black Moon Dance [00]
09. By The Moon [00]
10. Responsorium II [00]
11. Ancient Person Of My Heart [00]
12. Ancient Person Of My Heart (le tonnere dance mix) [00]
Отчёт EAC
EAC extraction logfile from 20. March 2007, 21:46 for CD
Enigma / Metamorphosis

Used drive : ASUS CRW-5232AS Adapter: 1 ID: 1
Read mode : Secure with NO C2, accurate stream, disable cache
Read offset correction : 6
Overread into Lead-In and Lead-Out : No

Used output format : C:\Program Files\Monkey's Audio\wapet.exe (User Defined Encoder)
320 kBit/s
Additional command line options : %d -t "Artist=%a" -t "Title=%t" -t "Album=%g" -t "Year=%y" -t "Track=%n" -t "Genre=%m" "C:\Program Files\Monkey's Audio\mac.exe" %s %d -c4000

Other options :
Fill up missing offset samples with silence : Yes
Delete leading and trailing silent blocks : No
Installed external ASPI interface

Range status and errors
Selected range
Filename E:\!tracker\enigma_fake_1998_metamorphosis\Enigma [Fake] - Metamorphosis.wav

Peak level 100.0 %
Range quality 99.9 %
CRC 1BAF29AF
Copy OK

No errors occured

End of status report
14 - Temple Of Love - 1998
pic
Исполнитель: Erotic Dreams
Альбом: Temple Of Love
Тип релиза: Бутлег [Bootleg]
Жанр: misc
Дата выпуска: 1998
Страна: EU
Формат: WV (image+cue)
Битрейт: 893 kbps
Продолжительность: 01:03:42

Треклист:
01. Temple Of Love [00]
02. Water (Creativity) [00]
03. It's In The Mind (Not In The Eye) [00]
04. Love Me [00]
05. Sequoia [00]
06. Valley Of Dreams [00]
07. Pharao's Dream [00]
08. Clelia [00]
09. African Love [00]
10. Voices In The Dark [00]
11. Respect (All My Relations) [00]
Отчёт EAC
EAC Auslese-Logdatei vom 22. Mдrz 2008, 14:10 fьr CD
Erotic Dreams / Temple Of Love

Benutztes Laufwerk : BENQ DVD DD DW1625 Adapter: 0 ID: 1
Lesemodus : Sicher mit KEINEM C2, Accurate Stream, KEIN Puffer abgeschaltet
Kombinierter Lese/Schreiboffset Korrektur : 0
Ьberlesen in das Lead-In und Lead-Out : Nein

Benutztes Ausgabeformat : Monkey's Audio Lossless Encoder v3.99 DLL
Fast Lossless Compression

Andere Einstellungen :
Fьlle fehlende Offsetsample mit Stille auf : Ja
Lцsche fьhrende und nachfolgende stille Blцcke : Nein
Natьrliche Win32 Schnittstelle fьr Win NT/2000/XP

Bereichsstatus und Fehler
Gewдhlter Bereich
Dateiname E:\EAC\Erotic Dreams - Temple Of Love.ape

Spitzenpegel 100.0 %
Bereichsqualitдt 100.0 %
CRC 31B2073B
Kopie OK

Keine Fehler aufgetreten

Ende des Statusreports
15 - D*Emotion Project - 2000
pic
Исполнитель: Enigma
Альбом: D*Emotion Project
Тип релиза: Бутлег [Bootleg]
Жанр: new age
Дата выпуска: 2000
Страна: EU
Формат: WV (image+cue)
Битрейт: 954 kbps
Продолжительность: 01:07:37

Треклист:
01. Cang Ding [00]
02. Planinata [00]
03. Flatlands [00]
04. June [00]
05. Brazil [00]
06. Close To Heaven [00]
07. Sunless Sea [00]
08. November [00]
09. Return To Innocence [00]
10. Indian Spirit Reprise [00]
11. Angles Weep [00]
12. Evolution [00]
13. Paradox [00]
14. Beyond The Invisible [00]
Отчёт EAC
EAC extraction logfile from 14. February 2007, 19:46 for CD
Enigma / D*Emotion Project

Used drive : ASUS CD-S500/A Adapter: 1 ID: 1
Read mode : Secure with C2, accurate stream, NO disable cache
Combined read/write offset correction : 0
Overread into Lead-In and Lead-Out : No

Used output format : Internal WAV Routines
44.100 Hz; 16 Bit; Stereo

Other options :
Fill up missing offset samples with silence : Yes
Delete leading and trailing silent blocks : No
Native Win32 interface for Win NT & 2000

Range status and errors
Selected range
Filename I:\Enigma - D Emotion Project.wav

Peak level 100.0 %
Range quality 100.0 %
CRC DEE193D4
Copy OK

No errors occured

End of status report
16 - Enigma V - Dream On - 2000
pic
Исполнитель: Various Artists (VA)
Альбом: Enigma V - Dream On
Тип релиза: Бутлег [Bootleg]
Жанр: New Age
Дата выпуска: 2000
Страна: EU
Формат: WV (image+cue)
Битрейт: 915 kbps
Продолжительность: 01:13:46

Треклист:
01. Sadeness - (Meditation Mix) [00]
02. Mea Culpa - (Fading Shades Mix) [00]
03. Simple Obsession [00]
04. Waiting For The Hurricane [00]
05. All Out Of Love [00]
06. Just For The Day [00]
07. Sadeness - (Extended Trance Mix) [00]
08. Mea Culpa - (Orthodox Version) [00]
09. Lovelight In Your Eyes [00]
10. Holdin' On To You [00]
11. Without A Sound [00]
12. Power Of The Loser [00]
13. Mea Culpa (Catholic Version) [00]
14. Sadeness - (Violent Us Remix) [00]
15. Dream On [00]
16. Snowin' Under My Skin [00]
Отчёт EAC
Exact Audio Copy V0.99 prebeta 5 from 4. May 2009

Отчёт EAC об извлечении, выполненном 26. апреля 2010, 22:23

Enigma V (piracy mixed) / Dream On

Дисковод: SCSIVAX DVD/CD-ROM Adapter: 4 ID: 0

Режим чтения : Достоверность
Использование точного потока : Да
Отключение кэша аудио : Да
Использование указателей C2 : Нет

Коррекция смещения при чтении : 0
Способность читать области Lead-in и Lead-out : Нет
Заполнение пропущенных сэмплов тишиной : Да
Удаление блоков с тишиной в начале и конце : Нет
При вычислениях CRC использовались нулевые сэмплы : Да
Интерфейс : Установленный внешний ASPI-интерфейс

Выходной формат : Внутренние WAV-операции
Формат сэмплов : 44.100 Гц; 16 бит; стерео
Смещение при сжатии : 6

TOC извлечённого CD

Трек | Старт | Длительность | Начальный сектор | Конечный сектор
---------------------------------------------------------------------
1 | 0:00.00 | 3:03.28 | 0 | 13752
2 | 3:03.28 | 6:15.25 | 13753 | 41902
3 | 9:18.53 | 4:10.45 | 41903 | 60697
4 | 13:29.23 | 4:48.13 | 60698 | 82310
5 | 18:17.36 | 4:11.50 | 82311 | 101185
6 | 22:29.11 | 3:28.72 | 101186 | 116857
7 | 25:58.08 | 5:03.27 | 116858 | 139609
8 | 31:01.35 | 4:01.15 | 139610 | 157699
9 | 35:02.50 | 5:51.23 | 157700 | 184047
10 | 40:53.73 | 3:44.40 | 184048 | 200887
11 | 44:38.38 | 3:36.52 | 200888 | 217139
12 | 48:15.15 | 4:18.55 | 217140 | 236544
13 | 52:33.70 | 3:54.48 | 236545 | 254142
14 | 56:28.43 | 5:04.45 | 254143 | 276987
15 | 61:33.13 | 3:38.33 | 276988 | 293370
16 | 65:11.46 | 8:35.67 | 293371 | 332062

Характеристики диапазона извлечения и сообщения об ошибках

Выбранный диапазон

Имя файла J:\Enigma - Discography\ENIGMA-DiscographY.(plus).1990-2008\[_FAKES_(bootlegs)_]\ENIGMA-2000-V- Dream.On.iso\Enigma V (piracy mixed) - Dream On.wav

Пиковый уровень 99.0 %
Качество диапазона 100.0 %
CRC копии 8F5DA71C
Копирование... OK

Ошибок не произошло

Конец отчёта
17 - Dance Hits & Remixes (Special Edition) - 2001
pic
Исполнитель: Enigma
Альбом: Dance Hits & Remixes (Special Edition)
Тип релиза: Бутлег [Bootleg]
Жанр: Ethnic
Дата выпуска: 2001
Страна: EU
Формат: WV (image+cue)
Битрейт: 870 kbps
Продолжительность: 01:17:18

Треклист:
01. Turn Around (Modern Light Club Mix) [00]
02. Push The Limits (ATB Club Mix) [00]
03. Gravity Of Love (Dark Vocal Club Mix) [00]
04. The Eyes Of Truth (Goutterelammerung Mix) [00]
05. Out From The Deep (Trance Mix) [00]
06. Age Of Loneliness (Enigmatic Club Mix) [00]
07. Principles Of Lust (The Omen Mix) [00]
08. Gravity Of Love (Chilled Club Mix) [00]
09. Light Of Your Smile (Deep Version) [00]
10. Enigmatic Encounter (ATB & Enigma) [00]
11. Sadeness Part 1 (Violet US Remix) [00]
12. Return To Innocence (380 Midnight Mix) [00]
Отчёт EAC
Exact Audio Copy V0.99 prebeta 3 from 28. July 2007

Отчёт EAC об извлечении, выполненном 5. июня 2008, 0:37

Enigma / Dance Hits & Remixes (Special Edition)

Дисковод: _NEC DVD_RW ND-4571A Adapter: 1 ID: 0

Режим чтения : Достоверность
Использование точного потока : Да
Отключение кэша аудио : Да
Использование указателей C2 : Нет

Коррекция смещения при чтении : 48
Способность читать области Lead-in и Lead-out : Нет
Заполнение пропущенных сэмплов тишиной : Да
Удаление блоков с тишиной в начале и конце : Нет
При вычислениях CRC использовались нулевые сэмплы : Да
Интерфейс : Встроенный Win32-интерфейс для Win NT/2000

Выходной формат : Внутренние WAV-операции
Формат сэмплов : 44.100 Гц; 16 бит; стерео

TOC извлечённого CD

Трек | Старт | Длительность | Начальный сектор | Конечный сектор
---------------------------------------------------------------------
1 | 0:00.00 | 10:43.03 | 0 | 48227
2 | 10:43.03 | 8:31.44 | 48228 | 86596
3 | 19:14.47 | 6:41.43 | 86597 | 116714
4 | 25:56.15 | 7:18.19 | 116715 | 149583
5 | 33:14.34 | 5:50.11 | 149584 | 175844
6 | 39:04.45 | 6:23.20 | 175845 | 204589
7 | 45:27.65 | 5:54.17 | 204590 | 231156
8 | 51:22.07 | 5:28.73 | 231157 | 255829
9 | 56:51.05 | 5:15.13 | 255830 | 279467
10 | 62:06.18 | 4:41.51 | 279468 | 300593
11 | 66:47.69 | 5:05.26 | 300594 | 323494
12 | 71:53.20 | 5:49.01 | 323495 | 349670

Характеристики диапазона извлечения и сообщения об ошибках

Выбранный диапазон

Имя файла F:\Enigma - Dance Hits & Remixes (Special Edition).wav

Пиковый уровень 100.0 %
Качество диапазона 100.0 %
CRC копии 323C5C39
Копирование... OK

Ошибок не произошло

Конец отчёта
18 - Music Box(feat. Andru Donalds) - 2002
pic
Исполнитель: Enigma feat. Andru Donalds
Альбом: Music Box
Тип релиза: Бутлег [Bootleg]
Жанр: New Age
Дата выпуска: 2002
Страна: EU
Формат: WV (image+cue)
Битрейт: 968 kbps
Продолжительность: 01:19:31

Треклист:
01. One Night Lover [00]
02. Mishale [00]
03. All Out Of Love [00]
04. Holding On To You [00]
05. What Kind Of Girl [00]
06. Hurts To Be In Love [00]
07. Power Of The Loser [00]
08. Just For One Day [00]
09. Waiting For The Hurricane [00]
10. Lets Talk About It [00]
11. Lovelight In Your Eyes [00]
12. World, Unspoken [00]
13. Just Give Me Time [00]
14. Simple Obsession [00]
15. Trying To Tell Ya [00]
16. Silent Warrior [00]
17. Peace Of Mind [00]
18. Someday [00]
19. Lovin' You [00]
20. My Sensual Love [00]
Отчёт EAC
Exact Audio Copy V0.99 prebeta 4 from 23. January 2008

Отчёт EAC об извлечении, выполненном 12. сентября 2008, 19:03

Enigma feat. Andru Donalds / Music Box

Дисковод: _NEC DVD_RW ND-3520AW Adapter: 3 ID: 0

Режим чтения : Достоверность
Использование точного потока : Да
Отключение кэша аудио : Да
Использование указателей C2 : Нет

Коррекция смещения при чтении : 48
Способность читать области Lead-in и Lead-out : Нет
Заполнение пропущенных сэмплов тишиной : Да
Удаление блоков с тишиной в начале и конце : Нет
При вычислениях CRC использовались нулевые сэмплы : Да
Интерфейс : Встроенный Win32-интерфейс для Win NT/2000

Выходной формат : Monkey's Audio (без потерь)
Выбранный битрейт : High Lossless Compression
Качество : Высокий
Добавление ID3-тэга : Да
Утилита сжатия : C:\Program Files\Monkey's Audio\MAC.exe

TOC извлечённого CD

Трек | Старт | Длительность | Начальный сектор | Конечный сектор
---------------------------------------------------------------------
1 | 0:00.00 | 3:41.52 | 0 | 16626
2 | 3:41.52 | 3:35.38 | 16627 | 32789
3 | 7:17.15 | 4:08.29 | 32790 | 51418
4 | 11:25.44 | 3:38.55 | 51419 | 67823
5 | 15:04.24 | 3:03.39 | 67824 | 81587
6 | 18:07.63 | 3:28.07 | 81588 | 97194
7 | 21:35.70 | 4:10.18 | 97195 | 115962
8 | 25:46.13 | 3:22.21 | 115963 | 131133
9 | 29:08.34 | 4:44.25 | 131134 | 152458
10 | 33:52.59 | 4:12.47 | 152459 | 171405
11 | 38:05.31 | 5:28.31 | 171406 | 196036
12 | 43:33.62 | 3:41.66 | 196037 | 212677
13 | 47:15.53 | 4:15.14 | 212678 | 231816
14 | 51:30.67 | 4:04.40 | 231817 | 250156
15 | 55:35.32 | 4:24.59 | 250157 | 270015
16 | 60:00.16 | 3:45.52 | 270016 | 286942
17 | 63:45.68 | 3:41.58 | 286943 | 303575
18 | 67:27.51 | 4:53.67 | 303576 | 325617
19 | 72:21.43 | 3:32.35 | 325618 | 341552
20 | 75:54.03 | 3:57.43 | 341553 | 359370

Характеристики диапазона извлечения и сообщения об ошибках

Выбранный диапазон

Имя файла M:\Альбомы\Enigma\Enigma feat. Andru Donalds'2002 - Music Box\Enigma feat. Andru Donalds'2002 - Music Box.wav

Пиковый уровень 96.6 %
Качество диапазона 99.9 %
CRC теста 5108AB5A
CRC копии 5108AB5A
Копирование... OK

Ошибок не произошло

Конец отчёта
19 - Enigma & Michael Cretu(CD1) - 2003
pic
Исполнитель: Enigma
Альбом: Enigma & Michael Cretu
Тип релиза: Бутлег [Bootleg]
Жанр: New Age
Дата выпуска: 2003
Страна: EU
Формат: WV (image+cue)
Битрейт: 823 kbps
Продолжительность: 00:58:44

Треклист:
01. The Voice Of Enigma [00]
02. The Voice & The Snake [00]
03. Return To Innocence [00]
04. Callas Went Away [00]
05. Knocking On Forbidden Doors [00]
06. Hallelujah [00]
07. The Rivers Of Belief [00]
08. Principles Of Lust [00]
09. Silent Warrior [00]
10. The Dream Of The Dolphin [00]
11. Second Chapter [00]
12. I Love You... I'll Kill You [00]
13. The Cross Of Changes [00]
14. The Rivers Of Belief (The Returning Silence) [00]
Отчёт EAC
Exact Audio Copy V0.99 prebeta 4 from 23. January 2008

Отчёт EAC об извлечении, выполненном 14. октября 2008, 21:37

Enigma / Enigma & Michael Cretu

Дисковод: TSSTcorpCD/DVDW SH-S183L Adapter: 0 ID: 1

Режим чтения : Достоверность
Использование точного потока : Да
Отключение кэша аудио : Да
Использование указателей C2 : Нет

Коррекция смещения при чтении : 6
Способность читать области Lead-in и Lead-out : Нет
Заполнение пропущенных сэмплов тишиной : Да
Удаление блоков с тишиной в начале и конце : Нет
При вычислениях CRC использовались нулевые сэмплы : Да
Интерфейс : Установленный внешний ASPI-интерфейс

Выходной формат : Внутренние WAV-операции
Формат сэмплов : 44.100 Гц; 16 бит; стерео

TOC извлечённого CD

Трек | Старт | Длительность | Начальный сектор | Конечный сектор
---------------------------------------------------------------------
1 | 0:00.00 | 2:07.47 | 0 | 9571
2 | 2:07.47 | 1:43.05 | 9572 | 17301
3 | 3:50.52 | 4:13.50 | 17302 | 36326
4 | 8:04.27 | 4:28.17 | 36327 | 56443
5 | 12:32.44 | 4:26.44 | 56444 | 76437
6 | 16:59.13 | 4:15.17 | 76438 | 95579
7 | 21:14.30 | 3:20.56 | 95580 | 110635
8 | 24:35.11 | 4:49.70 | 110636 | 132380
9 | 29:25.06 | 6:09.52 | 132381 | 160107
10 | 35:34.58 | 2:49.19 | 160108 | 172801
11 | 38:24.02 | 2:15.21 | 172802 | 182947
12 | 40:39.23 | 8:41.59 | 182948 | 222081
13 | 49:21.07 | 2:24.30 | 222082 | 232911
14 | 51:45.37 | 6:58.69 | 232912 | 264330

Характеристики диапазона извлечения и сообщения об ошибках

Выбранный диапазон

Имя файла D:\Download\BitComets\Мои раздачи\Enigma & Michael Cretu 2CD\Enigma - Enigma & Michael Cretu 1CD.wav

Пиковый уровень 99.0 %
Качество диапазона 100.0 %
CRC копии 66665FD6
Копирование... OK

Ошибок не произошло

Конец отчёта
20 - Enigma & Michael Cretu(CD2) - 2003
pic
Исполнитель: Enigma & Michael Cretu
Альбом: Enigma & Michael Cretu
Тип релиза: Бутлег [Bootleg]
Жанр: New Age
Дата выпуска: 2003
Страна: EU
Формат: WV (image+cue)
Битрейт: 847 kbps
Продолжительность: 01:10:04

Треклист:
01. Mona Lisa (Cretu and Thiers) [00]
02. Samurai (Cretu) [00]
03. Coda (Cretu) [00]
04. Silver Water (Cretu) [00]
05. 200 Ways To Heaven (Cretu And Thiers) [00]
06. Crazy Life (Cretu And Thiers) [00]
07. Your Favorite Toy (Cretu) [00]
08. Captain Right (Cretu And Thiers) [00]
09. When Love Is Missing Word (Cretu And Thiers) [00]
10. Intro (Cretu) [00]
11. Mikado (Cretu) [00]
12. The Invisible Man (Cretu) [00]
13. Waterfall (Cretu And Thiers) [00]
14. Snowin' Under My Skin (Cretu And Thiers) [00]
15. Carte Blanche (Cretu) [00]
16. Don't Say You Love Me (Cretu And Thiers) [00]
17. Heavy Traffic (Cretu) [00]
Отчёт EAC
Exact Audio Copy V0.99 prebeta 4 from 23. January 2008

Отчёт EAC об извлечении, выполненном 14. октября 2008, 21:53

Enigma & Michael Cretu / Enigma & Michael Cretu

Дисковод: TSSTcorpCD/DVDW SH-S183L Adapter: 0 ID: 1

Режим чтения : Достоверность
Использование точного потока : Да
Отключение кэша аудио : Да
Использование указателей C2 : Нет

Коррекция смещения при чтении : 6
Способность читать области Lead-in и Lead-out : Нет
Заполнение пропущенных сэмплов тишиной : Да
Удаление блоков с тишиной в начале и конце : Нет
При вычислениях CRC использовались нулевые сэмплы : Да
Интерфейс : Установленный внешний ASPI-интерфейс

Выходной формат : Внутренние WAV-операции
Формат сэмплов : 44.100 Гц; 16 бит; стерео

TOC извлечённого CD

Трек | Старт | Длительность | Начальный сектор | Конечный сектор
---------------------------------------------------------------------
1 | 0:00.01 | 4:29.06 | 1 | 20181
2 | 4:29.07 | 5:12.67 | 20182 | 43648
3 | 9:41.74 | 0:57.23 | 43649 | 47946
4 | 10:39.22 | 4:39.56 | 47947 | 68927
5 | 15:19.03 | 4:03.13 | 68928 | 87165
6 | 19:22.16 | 3:44.35 | 87166 | 104000
7 | 23:06.51 | 3:24.14 | 104001 | 119314
8 | 26:30.65 | 3:50.43 | 119315 | 136607
9 | 30:21.33 | 3:58.43 | 136608 | 154500
10 | 34:20.01 | 2:27.69 | 154501 | 165594
11 | 36:47.70 | 3:12.21 | 165595 | 180015
12 | 40:00.16 | 5:01.41 | 180016 | 202631
13 | 45:01.57 | 6:21.03 | 202632 | 231209
14 | 51:22.60 | 6:18.12 | 231210 | 259571
15 | 57:40.72 | 3:23.16 | 259572 | 274812
16 | 61:04.13 | 4:05.69 | 274813 | 293256
17 | 65:10.07 | 4:54.55 | 293257 | 315361

Характеристики диапазона извлечения и сообщения об ошибках

Выбранный диапазон

Имя файла D:\Download\BitComets\Мои раздачи\Enigma & Michael Cretu 2CD\Enigma - Enigma & Michael Cretu 2CD.wav

Пиковый уровень 97.1 %
Качество диапазона 99.9 %
CRC копии FB820039
Копирование... OK

Ошибок не произошло

Конец отчёта
21 - Sleep - 2003
pic
Исполнитель: Enigma
Альбом: Sleep
Тип релиза: Бутлег [Bootleg]
Жанр: Electronic
Дата выпуска: 2003
Страна: EU
Формат: WV (image+cue)
Битрейт: 938 kbps
Продолжительность: 01:19:16

Треклист:
01. Damascus [00]
02. Center Of The Sun [00]
03. Tears From The Moon [00]
04. Tidal Poo [00]
05. Manic Star [00]
06. Redemption [00]
07. Years [00]
08. Make A Wish [00]
09. Pandora [00]
10. Sleep [00]
11. Premonition Reprise [00]
12. Premonition [00]
13. Tears From The Moon (Hybrid's Twisted On The Terrace) [00]
14. Sleep (Ian Van Dahl Mix) [00]
15. Sleep (Solarstone's Afterhours' Mix) [00]
Отчёт EAC
EAC extraction logfile from 26. February 2008, 0:32 for CD
Enigma / Sleep

Used drive : HL-DT-STDVDRAM GSA-4167B Adapter: 0 ID: 0
Read mode : Secure with NO C2, accurate stream, disable cache
Read offset correction : 667
Overread into Lead-In and Lead-Out : No

Used output format : Internal WAV Routines
44.100 Hz; 16 Bit; Stereo

Other options :
Fill up missing offset samples with silence : Yes
Delete leading and trailing silent blocks : No
Native Win32 interface for Win NT & 2000

Range status and errors
Selected range
Filename D:\APE\Enigma - Sleep.wav

Peak level 96.6 %
Range quality 100.0 %
CRC AD23CA8C
Copy OK

No errors occured

End of status report
22 - Alchemist (Best Of) - 2008
pic
Исполнитель: Enigma
Альбом: Alchemist (Best Of)
Тип релиза: Бутлег [Bootleg]
Жанр: New Age
Дата выпуска: 2008
Страна: EU
Формат: WV (image+cue)
Битрейт: 698 kbps
Продолжительность: 01:04:28

Треклист:
01. From East To West [00]
02. Sitting on the Moon [00]
03. Fata Morgana [00]
04. The Look of Today [00]
05. Between Generations [00]
06. Feel Me Heaven [00]
07. Voyageur [00]
08. Sunrise [00]
09. Touchness [00]
10. The Alchemist [00]
11. In the Shadow, in the Light [00]
12. We are Nature [00]
13. Boum Boum [00]
14. Seven Lives [00]
15. Invisible Love [00]
Отчёт EAC
Exact Audio Copy V0.99 prebeta 5 from 4. May 2009

Отчёт EAC об извлечении, выполненном 25. апреля 2010, 19:58

Enigma / Alchemist (Best Of)

Дисковод: SCSIVAX DVD/CD-ROM Adapter: 4 ID: 1

Режим чтения : Достоверность
Использование точного потока : Да
Отключение кэша аудио : Да
Использование указателей C2 : Нет

Коррекция смещения при чтении : 0
Способность читать области Lead-in и Lead-out : Нет
Заполнение пропущенных сэмплов тишиной : Да
Удаление блоков с тишиной в начале и конце : Нет
При вычислениях CRC использовались нулевые сэмплы : Да
Интерфейс : Установленный внешний ASPI-интерфейс

Выходной формат : Внутренние WAV-операции
Формат сэмплов : 44.100 Гц; 16 бит; стерео
Смещение при сжатии : 6

TOC извлечённого CD

Трек | Старт | Длительность | Начальный сектор | Конечный сектор
---------------------------------------------------------------------
1 | 0:00.00 | 4:11.61 | 0 | 18885
2 | 4:11.61 | 4:31.72 | 18886 | 39282
3 | 8:43.58 | 2:57.31 | 39283 | 52588
4 | 11:41.14 | 3:54.32 | 52589 | 70170
5 | 15:35.46 | 4:26.57 | 70171 | 90177
6 | 20:02.28 | 4:37.61 | 90178 | 111013
7 | 24:40.14 | 4:36.32 | 111014 | 131745
8 | 29:16.46 | 2:37.33 | 131746 | 143553
9 | 31:54.04 | 3:34.73 | 143554 | 159676
10 | 35:29.02 | 4:39.51 | 159677 | 180652
11 | 40:08.53 | 5:36.41 | 180653 | 205893
12 | 45:45.19 | 4:44.08 | 205894 | 227201
13 | 50:29.27 | 3:59.62 | 227202 | 245188
14 | 54:29.14 | 4:25.48 | 245189 | 265111
15 | 58:54.62 | 5:34.02 | 265112 | 290163

Характеристики диапазона извлечения и сообщения об ошибках

Выбранный диапазон

Имя файла J:\Enigma - Discography\ENIGMA-DiscographY.(plus).1990-2008\[_COMPILATIONS_]\ENIGMA-2000-Alchemist.(Best.Of)\Enigma - Alchemist (Best Of).wav

Пиковый уровень 76.8 %
Качество диапазона 100.0 %
CRC копии 9444C9D0
Копирование... OK

Ошибок не произошло

Конец отчёта
23 - Moonlight - Sensual Mix - 2009
pic
Исполнитель: Enigma
Альбом: Moonlight - Sensual Mix
Тип релиза: Бутлег [Bootleg]
Жанр: New Age
Дата выпуска: 2009
Страна: EU
Формат: WV (image+cue)
Битрейт: 879 kbps
Продолжительность: 01:15:26

Треклист:
01. Hello And Welcome (Original Version) [00]
02. Downtown Silence (Fato DS Mix) [00]
03. Feel Me Heaven (Fato DS Mix) [00]
04. Eppur Si Muove (Fato DS Mix) [00]
05. I Love You, I'll Kill You (Fato DS Mix) [00]
06. The Eyes Of Truth (Maxliss Mix) [00]
07. Seven Lives (Fast Mix) [00]
08. Endless Quest (Fato DS Mix) [00]
09. Why! (Gatto Mix) [00]
10. The Gate (NN Mix) [00]
11. Boum-Boum (Chicane Remix) [00]
12. The Same Parents (Saga Mix) [00]
13. Voyageur (Chillout Mix) [00]
14. Carly's Loneliness (Fato DS Mix) [00]
15. Luchare (Tiesto Mix) [00]
16. Redencion (Shiller Mix) [00]
Отчёт EAC
Exact Audio Copy V0.99 prebeta 5 from 4. May 2009

Отчёт EAC об извлечении, выполненном 25. апреля 2010, 17:23

Enigma / Moonlight - Sensual Mix

Дисковод: SCSIVAX DVD/CD-ROM Adapter: 4 ID: 1

Режим чтения : Достоверность
Использование точного потока : Да
Отключение кэша аудио : Да
Использование указателей C2 : Нет

Коррекция смещения при чтении : 0
Способность читать области Lead-in и Lead-out : Нет
Заполнение пропущенных сэмплов тишиной : Да
Удаление блоков с тишиной в начале и конце : Нет
При вычислениях CRC использовались нулевые сэмплы : Да
Интерфейс : Установленный внешний ASPI-интерфейс

Выходной формат : Внутренние WAV-операции
Формат сэмплов : 44.100 Гц; 16 бит; стерео
Смещение при сжатии : 6

TOC извлечённого CD

Трек | Старт | Длительность | Начальный сектор | Конечный сектор
---------------------------------------------------------------------
1 | 0:00.12 | 3:58.57 | 12 | 17918
2 | 3:58.69 | 5:42.16 | 17919 | 43584
3 | 9:41.10 | 2:30.57 | 43585 | 54891
4 | 12:11.67 | 6:06.03 | 54892 | 82344
5 | 18:17.70 | 7:23.54 | 82345 | 115623
6 | 25:41.49 | 3:42.17 | 115624 | 132290
7 | 29:23.66 | 3:46.37 | 132291 | 149277
8 | 33:10.28 | 5:38.59 | 149278 | 174686
9 | 38:49.12 | 4:48.42 | 174687 | 196328
10 | 43:37.54 | 5:39.65 | 196329 | 221818
11 | 49:17.44 | 4:00.02 | 221819 | 239820
12 | 53:17.46 | 6:11.39 | 239821 | 267684
13 | 59:29.10 | 4:13.18 | 267685 | 286677
14 | 63:42.28 | 4:27.28 | 286678 | 306730
15 | 68:09.56 | 3:33.18 | 306731 | 322723
16 | 71:42.74 | 3:44.40 | 322724 | 339563

Характеристики диапазона извлечения и сообщения об ошибках

Выбранный диапазон

Имя файла J:\Enigma - Discography\ENIGMA-DiscographY.(plus).1990-2008\[_COMPILATIONS_]\ENIGMA-2009-Moonlight-Sensual.Mix.(eac.wv.cue.log.lirycs).iso.wv\Enigma - Moonlight - Sensual Mix.wav

Пиковый уровень 100.0 %
Качество диапазона 100.0 %
CRC копии B90676F1
Копирование... OK

Ошибок не произошло

Конец отчёта

COMPILATIONS
24 - TRILOGY (CD1) - MCMXC a.D. - 1998
pic
Исполнитель: Enigma
Альбом: TRILOGY (CD1) - MCMXC a.D.
Тип релиза: Официальный сборник [Compilation]
Жанр: New Age
Дата выпуска: 1998
Страна: EU
Формат: WV (image+cue)
Битрейт: 805 kbps
Продолжительность: 00:40:14

Треклист:
01. The Voice Of Enigma [00]
02. Principles Of Lust (Reprise) [00]
03. Callas Went Away [00]
04. Mea Culpa [00]
05. The Voice And The Snake [00]
06. Knocking On Forbidden Doors [00]
07. Back To The Rivers Of Belief [00]
Отчёт EAC
Exact Audio Copy V0.99 prebeta 5 from 4. May 2009

Отчёт EAC об извлечении, выполненном 25. января 2010, 10:12

Enigma / TRILOGY (CD1) - MCMXC a.D.

Дисковод: PIONEER DVD-RW DVR-115D Adapter: 0 ID: 0

Режим чтения : Достоверность
Использование точного потока : Да
Отключение кэша аудио : Да
Использование указателей C2 : Нет

Коррекция смещения при чтении : 48
Способность читать области Lead-in и Lead-out : Нет
Заполнение пропущенных сэмплов тишиной : Да
Удаление блоков с тишиной в начале и конце : Нет
При вычислениях CRC использовались нулевые сэмплы : Да
Интерфейс : Установленный внешний ASPI-интерфейс

Выходной формат : Внутренние WAV-операции
Формат сэмплов : 44.100 Гц; 16 бит; стерео
Смещение при сжатии : 6

TOC извлечённого CD

Трек | Старт | Длительность | Начальный сектор | Конечный сектор
---------------------------------------------------------------------
1 | 0:00.00 | 2:21.37 | 0 | 10611
2 | 2:21.37 | 11:43.10 | 10612 | 63346
3 | 14:04.47 | 4:29.28 | 63347 | 83549
4 | 18:34.00 | 5:01.25 | 83550 | 106149
5 | 23:35.25 | 1:41.05 | 106150 | 113729
6 | 25:16.30 | 4:22.50 | 113730 | 133429
7 | 29:39.05 | 10:36.20 | 133430 | 181149

Характеристики диапазона извлечения и сообщения об ошибках

Выбранный диапазон

Имя файла J:\ENIGMA-DiscographY.(plus).1990-2008\Trilogy\CD1\Enigma - TRILOGY (CD1) - MCMXC a.D..wav

Пиковый уровень 100.0 %
Качество диапазона 100.0 %
CRC копии 6E85D752
Копирование... OK

Ошибок не произошло

Конец отчёта
25 - TRILOGY (CD2) - 'The Cross Of Changes - 1998'
pic
Исполнитель: Enigma
Альбом: TRILOGY (CD2) - 'The Cross Of Changes'
Тип релиза: Официальный сборник [Compilation]
Жанр: New Age
Дата выпуска: 1998
Страна: EU
Формат: WV (image+cue)
Битрейт: 858 kbps
Продолжительность: 00:44:13

Треклист:
01. Second Chapter [00]
02. The Eyes Of Truth [00]
03. Return To Innocence [00]
04. I Love You ... I'll Kill You [00]
05. Silent Warrior [00]
06. The Dream of the Dolphin [00]
07. Age Of Loneliness (Carly's Song) [00]
08. Out From The Deep [00]
09. The Cross Of Changes [00]
Отчёт EAC
Exact Audio Copy V0.99 prebeta 5 from 4. May 2009

Отчёт EAC об извлечении, выполненном 25. января 2010, 11:30

Enigma / TRILOGY (CD2) - 'The Cross Of Changes'

Дисковод: PIONEER DVD-RW DVR-115D Adapter: 0 ID: 0

Режим чтения : Достоверность
Использование точного потока : Да
Отключение кэша аудио : Да
Использование указателей C2 : Нет

Коррекция смещения при чтении : 48
Способность читать области Lead-in и Lead-out : Нет
Заполнение пропущенных сэмплов тишиной : Да
Удаление блоков с тишиной в начале и конце : Нет
При вычислениях CRC использовались нулевые сэмплы : Да
Интерфейс : Установленный внешний ASPI-интерфейс

Выходной формат : Внутренние WAV-операции
Формат сэмплов : 44.100 Гц; 16 бит; стерео
Смещение при сжатии : 6

TOC извлечённого CD

Трек | Старт | Длительность | Начальный сектор | Конечный сектор
---------------------------------------------------------------------
1 | 0:00.00 | 2:15.22 | 0 | 10146
2 | 2:15.22 | 7:14.38 | 10147 | 42734
3 | 9:29.60 | 4:15.35 | 42735 | 61894
4 | 13:45.20 | 8:52.42 | 61895 | 101836
5 | 22:37.62 | 6:09.58 | 101837 | 129569
6 | 28:47.45 | 2:47.30 | 129570 | 142124
7 | 31:35.00 | 5:21.37 | 142125 | 166236
8 | 36:56.37 | 4:53.08 | 166237 | 188219
9 | 41:49.45 | 2:24.30 | 188220 | 199049

Характеристики диапазона извлечения и сообщения об ошибках

Выбранный диапазон

Имя файла J:\ENIGMA-DiscographY.(plus).1990-2008\Trilogy\CD2\Enigma - TRILOGY (CD2) - 'The Cross Of Changes'.wav

Пиковый уровень 99.0 %
Качество диапазона 100.0 %
CRC копии 10476D37
Копирование... OK

Ошибок не произошло

Все треки извлечены точно

Конец отчёта
26 - TRILOGY (CD3) - 'Le Roi Est Mort, Vive Le Roi! - 1998
pic
Исполнитель: Enigma
Альбом: TRILOGY (CD3) - 'Le Roi Est Mort, Vive Le Roi!'
Тип релиза: Официальный сборник [Compilation]
Жанр: New Age
Дата выпуска: 1998
Страна: EU
Формат: WV (image+cue)
Битрейт: 848 kbps
Продолжительность: 00:45:38

Треклист:
01. Le Roi Est Mort, Vive Le Roi! [00]
02. Morphing Thru Time [00]
03. Third Of It's Kind [00]
04. Beyond The Invisible [00]
05. Why! ... [00]
06. Shadows In Silence [00]
07. The Child In Us [00]
08. T.N.T. For The Brain [00]
09. Almost Full Moon [00]
10. The Roundabout [00]
11. Prism Of Life [00]
12. Odyssey Of The Mind [00]
Отчёт EAC
Exact Audio Copy V0.99 prebeta 5 from 4. May 2009

Отчёт EAC об извлечении, выполненном 25. января 2010, 11:51

Enigma / TRILOGY (CD3) - 'Le Roi Est Mort, Vive Le Roi!'

Дисковод: PIONEER DVD-RW DVR-115D Adapter: 0 ID: 0

Режим чтения : Достоверность
Использование точного потока : Да
Отключение кэша аудио : Да
Использование указателей C2 : Нет

Коррекция смещения при чтении : 48
Способность читать области Lead-in и Lead-out : Нет
Заполнение пропущенных сэмплов тишиной : Да
Удаление блоков с тишиной в начале и конце : Нет
При вычислениях CRC использовались нулевые сэмплы : Да
Интерфейс : Установленный внешний ASPI-интерфейс

Выходной формат : Внутренние WAV-операции
Формат сэмплов : 44.100 Гц; 16 бит; стерео
Смещение при сжатии : 6

TOC извлечённого CD

Трек | Старт | Длительность | Начальный сектор | Конечный сектор
---------------------------------------------------------------------
1 | 0:00.32 | 1:57.73 | 32 | 8879
2 | 1:58.30 | 5:47.62 | 8880 | 34966
3 | 7:46.17 | 0:19.13 | 34967 | 36404
4 | 8:05.30 | 5:00.02 | 36405 | 58906
5 | 13:05.32 | 4:59.28 | 58907 | 81359
6 | 18:04.60 | 4:21.15 | 81360 | 100949
7 | 22:26.00 | 5:06.05 | 100950 | 123904
8 | 27:32.05 | 4:26.05 | 123905 | 143859
9 | 31:58.10 | 3:26.17 | 143860 | 159326
10 | 35:24.27 | 3:38.38 | 159327 | 175714
11 | 39:02.65 | 4:55.12 | 175715 | 197851
12 | 43:58.02 | 1:40.68 | 197852 | 205419

Характеристики диапазона извлечения и сообщения об ошибках

Выбранный диапазон

Имя файла J:\ENIGMA-DiscographY.(plus).1990-2008\Trilogy\CD3\Enigma - TRILOGY (CD3) - 'Le Roi Est Mort, Vive Le Roi!'.wav

Пиковый уровень 100.0 %
Качество диапазона 100.0 %
CRC копии F6CFCD81
Копирование... OK

Ошибок не произошло

Конец отчёта
27 - Love Sensuality Devotion - Greatest Hits - 2001
pic
Исполнитель: Enigma
Альбом: Love Sensuality Devotion - Greatest Hits
Тип релиза: Официальный сборник [Compilation]
Жанр: New Age
Дата выпуска: 2001
Страна: EU
Формат: WV (image+cue)
Битрейт: 920 kbps
Продолжительность: 01:16:26

Треклист:
01. The Landing [00]
02. Turn Around [00]
03. Gravity Of Love [00]
04. T.N.T. For The Brain [00]
05. Modern Crusaders [00]
06. Shadows In Silence [00]
07. Return To Innocence [00]
08. I Love You ... I'll Kill You [00]
09. Principles Of Lust [00]
10. Sadeness (Part I) [00]
11. Silence Must Be Heard [00]
12. Smell Of Desire [00]
13. Mea Culpa [00]
14. Push The Limits [00]
15. Beyond The Invisible [00]
16. Age Of Loneliness [00]
17. Morphing Thru Time [00]
18. The Cross Of Changes [00]
Отчёт EAC
Exact Audio Copy V0.99 prebeta 5 from 4. May 2009

Отчёт EAC об извлечении, выполненном 25. апреля 2010, 13:40

Enigma / Love Sensuality Devotion - Greatest Hits

Дисковод: PIONEER DVD-RW DVR-115D Adapter: 0 ID: 0

Режим чтения : Достоверность
Использование точного потока : Да
Отключение кэша аудио : Да
Использование указателей C2 : Нет

Коррекция смещения при чтении : 48
Способность читать области Lead-in и Lead-out : Нет
Заполнение пропущенных сэмплов тишиной : Да
Удаление блоков с тишиной в начале и конце : Нет
При вычислениях CRC использовались нулевые сэмплы : Да
Интерфейс : Установленный внешний ASPI-интерфейс

Выходной формат : Внутренние WAV-операции
Формат сэмплов : 44.100 Гц; 16 бит; стерео
Смещение при сжатии : 6

TOC извлечённого CD

Трек | Старт | Длительность | Начальный сектор | Конечный сектор
---------------------------------------------------------------------
1 | 0:00.32 | 1:05.65 | 32 | 4971
2 | 1:06.22 | 3:51.25 | 4972 | 22321
3 | 4:57.47 | 3:58.65 | 22322 | 40236
4 | 8:56.37 | 5:17.70 | 40237 | 64081
5 | 14:14.32 | 3:53.40 | 64082 | 81596
6 | 18:07.72 | 4:19.13 | 81597 | 101034
7 | 22:27.10 | 4:15.25 | 101035 | 120184
8 | 26:42.35 | 8:01.45 | 120185 | 156304
9 | 34:44.05 | 3:08.45 | 156305 | 170449
10 | 37:52.50 | 4:15.40 | 170450 | 189614
11 | 42:08.15 | 4:46.27 | 189615 | 211091
12 | 46:54.42 | 4:32.35 | 211092 | 231526
13 | 51:27.02 | 4:31.00 | 231527 | 251851
14 | 55:58.02 | 3:48.15 | 251852 | 268966
15 | 59:46.17 | 4:50.15 | 268967 | 290731
16 | 64:36.32 | 4:10.33 | 290732 | 309514
17 | 68:46.65 | 5:25.42 | 309515 | 333931
18 | 74:12.32 | 2:15.25 | 333932 | 344081

Характеристики диапазона извлечения и сообщения об ошибках

Выбранный диапазон

Имя файла J:\ENIGMA-DiscographY.(plus).1990-2008\[_ALBUMS_]\ENIGMA-2001-Love.Sensuality.Devotion-Greatest.Hits.(eac.wv.cue.log.covers).iso.wv\Enigma - Love Sensuality Devotion - Greatest Hits.wav

Пиковый уровень 99.0 %
Качество диапазона 100.0 %
CRC копии 3B923B60
Копирование... OK

Ошибок не произошло

Конец отчёта
28 - Enigma - Love Sensuality Devotion (The Remix Collection) - 2002
pic
Исполнитель: Enigma
Альбом: Enigma - Love Sensuality Devotion (The Remix Collection)
Тип релиза: Официальный сборник [Compilation]
Жанр: New Age
Дата выпуска: 2002
Страна: EU
Формат: WV (image+cue)
Битрейт: 907 kbps
Продолжительность: 00:57:56

Треклист:
01. Turn around (northern lights club mix) [00]
02. Age of loneliness (enigmatic club mix) [00]
03. Push the limits (ATB remix) [00]
04. Gravity of love (Judgement da club mix) [00]
05. Return to innocence (380 midnight mix) [00]
06. Sadeness (part I) (violent U.S. remix) [00]
07. Principles of lust (everlasting lust mix) [00]
08. Mea Culpa (fading shades mix) [00]
09. T.N.T. for the brain (midnight man mix) [00]
Отчёт EAC
Exact Audio Copy V0.99 prebeta 5 from 4. May 2009

Отчёт EAC об извлечении, выполненном 25. апреля 2010, 21:59

Enigma / Enigma - Love Sensuality Devotion (The Remix Collection)

Дисковод: SCSIVAX DVD/CD-ROM Adapter: 4 ID: 0

Режим чтения : Достоверность
Использование точного потока : Да
Отключение кэша аудио : Да
Использование указателей C2 : Нет

Коррекция смещения при чтении : 0
Способность читать области Lead-in и Lead-out : Нет
Заполнение пропущенных сэмплов тишиной : Да
Удаление блоков с тишиной в начале и конце : Нет
При вычислениях CRC использовались нулевые сэмплы : Да
Интерфейс : Установленный внешний ASPI-интерфейс

Выходной формат : Внутренние WAV-операции
Формат сэмплов : 44.100 Гц; 16 бит; стерео
Смещение при сжатии : 6

TOC извлечённого CD

Трек | Старт | Длительность | Начальный сектор | Конечный сектор
---------------------------------------------------------------------
1 | 0:00.32 | 10:28.58 | 32 | 47189
2 | 10:29.15 | 6:15.07 | 47190 | 75321
3 | 16:44.22 | 7:51.33 | 75322 | 110679
4 | 24:35.55 | 5:59.30 | 110680 | 137634
5 | 30:35.10 | 5:42.25 | 137635 | 163309
6 | 36:17.35 | 4:43.22 | 163310 | 184556
7 | 41:00.57 | 4:55.72 | 184557 | 206753
8 | 45:56.54 | 6:04.41 | 206754 | 234094
9 | 52:01.20 | 5:56.37 | 234095 | 260831

Характеристики диапазона извлечения и сообщения об ошибках

Выбранный диапазон

Имя файла J:\Enigma - Discography\ENIGMA-DiscographY.(plus).1990-2008\[_COMPILATIONS_]\ENIGMA-2002-Love.Sensuality.Devotion-Remix.Collections.(eac.wv.cue.log.lirycs.covers).iso\Enigma - Enigma - Love Sensuality Devotion (The Remix Collection).wav

Пиковый уровень 99.0 %
Качество диапазона 100.0 %
CRC копии 5C7FB417
Копирование... OK

Ошибок не произошло
Все треки извлечены точно

Конец отчёта
29 - The Dusted Variations Bouns CD (Amazon Box) - 2005
pic
Исполнитель: Enigma
Альбом: The Dusted Variations Bouns CD (Amazon Box)
Тип релиза: Официальный сборник [Compilation]
Жанр: New Age
Дата выпуска: 2005
Страна: EU
Формат: WV (image+cue)
Битрейт: 653 kbps
Продолжительность: 00:48:58

Треклист:
01. Hello and Welcome (The Single) [00]
02. The Child in Us [00]
03. Age of Loneliness [00]
04. The Eyes of Truth [00]
05. The Rivers of Belief [00]
06. Endless Quest [00]
07. Sadeness (Part I) [00]
08. Voyageur [00]
09. Beyond the Invisible [00]
Отчёт EAC
EAC extraction logfile from 29. June 2006, 12:21 for CD
Enigma / The Dusted Variations Bouns CD (Amazon Box)

Used drive : XXX Adapter: 0 ID: 1
Read mode : Secure with NO C2, accurate stream, disable cache
Read offset correction : 30
Overread into Lead-In and Lead-Out : Yes

Used output format : Internal WAV Routines
44.100 Hz; 16 Bit; Stereo

Other options :
Fill up missing offset samples with silence : Yes
Delete leading and trailing silent blocks : No
Native Win32 interface for Win NT & 2000

Range status and errors
Selected range
Filename C:\Enigma\The Dusted Variations Bouns CD\CDImage.wav

Peak level 99.0 %
Range quality 100.0 %
CRC 420034C9
Copy OK

No errors occured

End of status report
30 - The Greatest Hits - The Platinum Collection CD1 - 2009
pic
Исполнитель: Enigma
Альбом: The Greatest Hits - The Platinum Collection CD1
Тип релиза: Официальный сборник [Compilation]
Жанр: New Age
Дата выпуска: 2009
Страна: EU
Формат: WV (image+cue)
Битрейт: 908 kbps
Продолжительность: 01:08:27

Треклист:
01. Sadeness (Part 1) [00]
02. Mea Culpa (Orthodox Version) [00]
03. Priciples Of Lust [00]
04. Rivers Of Belief [00]
05. Return To Innocence [00]
06. Age Of Loneliness [00]
07. Out From The Deep [00]
08. Beyond The Invisible [00]
09. T.N.T. For The Brain [00]
10. Gravity Of Love [00]
11. Push The Limits [00]
12. Voyageur [00]
13. Turn Around [00]
14. Boum - Boum [00]
15. Following The Sun [00]
16. Seven Lives [00]
17. La Puerta Del Cielo [00]
Отчёт EAC
Exact Audio Copy V0.99 prebeta 5 from 4. May 2009

EAC extraction logfile from 25. November 2009, 11:02

Enigma / The Greatest Hits - The Platinum Collection CD1

Used drive : ASUS DRW-1608P Adapter: 2 ID: 0

Read mode : Secure
Utilize accurate stream : Yes
Defeat audio cache : Yes
Make use of C2 pointers : No

Read offset correction : 48
Overread into Lead-In and Lead-Out : No
Fill up missing offset samples with silence : Yes
Delete leading and trailing silent blocks : No
Null samples used in CRC calculations : Yes
Used interface : Installed external ASPI interface

Used output format : User Defined Encoder
Selected bitrate : 1024 kBit/s
Quality : High
Add ID3 tag : No
Command line compressor : C:\Program Files (x86)\Exact Audio Copy\Flac\flac.exe
Additional command line options : -5 -V -T "ARTIST=%a" -T "TITLE=%t" -T "ALBUM=%g" -T "DATE=%y" -T "TRACKNUMBER=%n" -T "GENRE=%m" -T "COMMENT=EAC FLAC -5" %s

TOC of the extracted CD

Track | Start | Length | Start sector | End sector
---------------------------------------------------------
1 | 0:00.00 | 4:20.30 | 0 | 19529
2 | 4:20.30 | 4:01.28 | 19530 | 37632
3 | 8:21.58 | 3:26.65 | 37633 | 53147
4 | 11:48.48 | 4:23.57 | 53148 | 72929
5 | 16:12.30 | 4:11.32 | 72930 | 91786
6 | 20:23.62 | 4:16.72 | 91787 | 111058
7 | 24:40.59 | 4:32.15 | 111059 | 131473
8 | 29:12.74 | 4:35.15 | 131474 | 152113
9 | 33:48.14 | 4:03.68 | 152114 | 170406
10 | 37:52.07 | 4:00.33 | 170407 | 188439
11 | 41:52.40 | 3:54.12 | 188440 | 206001
12 | 45:46.52 | 3:57.05 | 206002 | 223781
13 | 49:43.57 | 3:55.05 | 223782 | 241411
14 | 53:38.62 | 3:43.72 | 241412 | 258208
15 | 57:22.59 | 4:18.60 | 258209 | 277618
16 | 61:41.44 | 3:47.65 | 277619 | 294708
17 | 65:29.34 | 3:33.13 | 294709 | 310696

Range status and errors

Selected range

Filename F:\Enigma - The Platinum Collection - 2009 (3CD)\CD1\Enigma - The Greatest Hits - The Platinum Collection CD1.wav

Peak level 99.8 %
Range quality 100.0 %
Test CRC DC1947CB
Copy CRC DC1947CB
Copy OK

No errors occurred

End of status report
31 - The Remix Collection - The Platinum Collection CD2 - 2009
pic
Исполнитель: Enigma
Альбом: The Remix Collection - The Platinum Collection CD2
Тип релиза: Официальный сборник [Compilation]
Жанр: New Age
Дата выпуска: 2009
Страна: EU
Формат: WV (image+cue)
Битрейт: 903 kbps
Продолжительность: 01:15:11

Треклист:
01. Sadeness (Us Violent Mix) [00]
02. Mea Culpa (Fading Shades Mix) [00]
03. Principles Of Lust (Everlasting Lust Mix) [00]
04. Return To Innocence (Long & Alive Version) [00]
05. Age Of Loneliness (Enigmatic Club Mix) [00]
06. Out From The Deep (Trance Mix) [00]
07. T.N.T. For The Brain (Midnight Man Mix) [00]
08. Gravity Of Love (Judgment Day Club Mix) [00]
09. Push The Limits (Atb Remix) [00]
10. Voyageur (Club Mix) [00]
11. Boum - Boum (Chicane Club Edit) [00]
12. Dreaming Of Andromeda (Jean F. Cochois Remix) [00]
Отчёт EAC
Exact Audio Copy V0.99 prebeta 5 from 4. May 2009

EAC extraction logfile from 25. November 2009, 11:30

Enigma / The Remix Collection - The Platinum Collection CD2

Used drive : ASUS DRW-1608P Adapter: 2 ID: 0

Read mode : Secure
Utilize accurate stream : Yes
Defeat audio cache : Yes
Make use of C2 pointers : No

Read offset correction : 48
Overread into Lead-In and Lead-Out : No
Fill up missing offset samples with silence : Yes
Delete leading and trailing silent blocks : No
Null samples used in CRC calculations : Yes
Used interface : Installed external ASPI interface

Used output format : User Defined Encoder
Selected bitrate : 1024 kBit/s
Quality : High
Add ID3 tag : No
Command line compressor : C:\Program Files (x86)\Exact Audio Copy\Flac\flac.exe
Additional command line options : -5 -V -T "ARTIST=%a" -T "TITLE=%t" -T "ALBUM=%g" -T "DATE=%y" -T "TRACKNUMBER=%n" -T "GENRE=%m" -T "COMMENT=EAC FLAC -5" %s

TOC of the extracted CD

Track | Start | Length | Start sector | End sector
---------------------------------------------------------
1 | 0:00.00 | 5:05.52 | 0 | 22926
2 | 5:05.52 | 6:16.72 | 22927 | 51198
3 | 11:22.49 | 5:09.25 | 51199 | 74398
4 | 16:31.74 | 7:07.58 | 74399 | 106481
5 | 23:39.57 | 6:23.00 | 106482 | 135206
6 | 30:02.57 | 5:50.05 | 135207 | 161461
7 | 35:52.62 | 5:57.62 | 161462 | 188298
8 | 41:50.49 | 6:13.66 | 188299 | 216339
9 | 48:04.40 | 8:31.14 | 216340 | 254678
10 | 56:35.54 | 6:25.20 | 254679 | 283573
11 | 63:00.74 | 5:03.26 | 283574 | 306324
12 | 68:04.25 | 7:29.31 | 306325 | 340030

Range status and errors

Selected range

Filename F:\Enigma - The Platinum Collection - 2009 (3CD)\CD2\Enigma - The Remix Collection - The Platinum Collection CD2.wav

Peak level 99.8 %
Range quality 100.0 %
Test CRC 87E77D9C
Copy CRC 87E77D9C
Copy OK

No errors occurred

AccurateRip summary

End of status report
32 - The Lost Ones - The Platinum Collection CD3 - 2009
pic
Исполнитель: Enigma
Альбом: The Lost Ones - The Platinum Collection CD3
Тип релиза: Официальный сборник [Compilation]
Жанр: Electronic
Дата выпуска: 2009
Страна: EU
Формат: WV (image+cue)
Битрейт: 748 kbps
Продолжительность: 00:35:41

Треклист:
01. Lost One [00]
02. Lost Two [00]
03. Lost Three [00]
04. Lost Four [00]
05. Lost Five [00]
06. Lost Six [00]
07. Lost Seven [00]
08. Lost Eight [00]
09. Lost Nine [00]
10. Lost Ten [00]
11. Lost Eleven [00]
Отчёт EAC
Exact Audio Copy V0.99 prebeta 5 from 4. May 2009

EAC extraction logfile from 25. November 2009, 11:46

Enigma / The Lost Ones - The Platinum Collection CD3

Used drive : ASUS DRW-1608P Adapter: 2 ID: 0

Read mode : Secure
Utilize accurate stream : Yes
Defeat audio cache : Yes
Make use of C2 pointers : No

Read offset correction : 48
Overread into Lead-In and Lead-Out : No
Fill up missing offset samples with silence : Yes
Delete leading and trailing silent blocks : No
Null samples used in CRC calculations : Yes
Used interface : Installed external ASPI interface

Used output format : User Defined Encoder
Selected bitrate : 1024 kBit/s
Quality : High
Add ID3 tag : No
Command line compressor : C:\Program Files (x86)\Exact Audio Copy\Flac\flac.exe
Additional command line options : -5 -V -T "ARTIST=%a" -T "TITLE=%t" -T "ALBUM=%g" -T "DATE=%y" -T "TRACKNUMBER=%n" -T "GENRE=%m" -T "COMMENT=EAC FLAC -5" %s

TOC of the extracted CD

Track | Start | Length | Start sector | End sector
---------------------------------------------------------
1 | 0:00.00 | 3:39.04 | 0 | 16428
2 | 3:39.04 | 2:13.21 | 16429 | 26424
3 | 5:52.25 | 3:34.71 | 26425 | 42545
4 | 9:27.21 | 3:28.54 | 42546 | 58199
5 | 12:56.00 | 2:31.07 | 58200 | 69531
6 | 15:27.07 | 2:17.45 | 69532 | 79851
7 | 17:44.52 | 4:12.65 | 79852 | 98816
8 | 21:57.42 | 3:59.62 | 98817 | 116803
9 | 25:57.29 | 3:23.63 | 116804 | 132091
10 | 29:21.17 | 2:40.67 | 132092 | 144158
11 | 32:02.09 | 3:50.26 | 144159 | 161434

Range status and errors

Selected range

Filename F:\Enigma - The Platinum Collection - 2009 (3CD)\CD3\Enigma - The Lost Ones - The Platinum Collection CD3.wav

Peak level 99.8 %
Range quality 99.9 %
Test CRC F9AB7B87
Copy CRC F9AB7B87
Copy OK

No errors occurred

End of status report

SINGLES
33 - CDM 'Sadeness Part I' - 1990
pic
Исполнитель: Enigma
Альбом: CDM 'Sadeness Part I'
Тип релиза: Макси-сингл [CDM]
Жанр: New Age
Дата выпуска: 1990
Страна: EU
Формат: WV (image+cue)
Битрейт: 923 kbps
Продолжительность: 00:17:21

Треклист:
01. Sadeness Part I (Radio Edit) [00:04:18]
02. Sadeness Part I (Violent US Remix) [00:05:03]
03. Sadeness Part I (Extended Trance Mix) [00:05:00]
04. Sadeness Part I (Meditation Mix) [00:02:59]
Отчёт EAC
EAC extraction logfile from 3. November 2007, 4:50 for CD
Enigma / CDM "Sadeness Part I"

Used drive : HL-DT-STDVD-RAM GSA-H20L Adapter: 0 ID: 0
Read mode : Secure with NO C2, accurate stream, disable cache
Read offset correction : 102
Overread into Lead-In and Lead-Out : No

Used output format : Internal WAV Routines
44.100 Hz; 16 Bit; Stereo

Other options :
Fill up missing offset samples with silence : Yes
Delete leading and trailing silent blocks : No
Installed external ASPI interface

Range status and errors
Selected range
Filename C:\_Enigma\Singles\[1990] Sadeness Part I\Sadeness Part I (CDM).wav

Peak level 100.0 %
Range quality 100.0 %
CRC 7409BB81
Copy OK

No errors occured

End of status report
34 - CDM 'Mea Culpa Part II' - 1991
pic
Исполнитель: Enigma
Альбом: CDM 'Mea Culpa Part II'
Тип релиза: Макси-сингл [CDM]
Жанр: New Age
Дата выпуска: 1991
Страна: EU
Формат: WV (image+cue)
Битрейт: 919 kbps
Продолжительность: 00:14:12

Треклист:
01. Mea Culpa Part II (Fading Shades Mix) [00:06:14]
02. Mea Culpa Part II (Orthodox Mix) [00:04:01]
03. Mea Culpa Part II (Catholic Version) [00:03:56]
Отчёт EAC
EAC extraction logfile from 3. November 2007, 4:34 for CD
Enigma / CDM "Mea Culpa Part II"

Used drive : HL-DT-STDVD-RAM GSA-H20L Adapter: 0 ID: 0
Read mode : Secure with NO C2, accurate stream, disable cache
Read offset correction : 102
Overread into Lead-In and Lead-Out : No

Used output format : Internal WAV Routines
44.100 Hz; 16 Bit; Stereo

Other options :
Fill up missing offset samples with silence : Yes
Delete leading and trailing silent blocks : No
Installed external ASPI interface

Range status and errors
Selected range
Filename C:\_Enigma\Singles\[1991] Mea Culpa Part II\Mea Culpa Part II (CDM).wav

Peak level 100.0 %
Range quality 99.9 %
CRC 684EF59D
Copy OK

No errors occured

End of status report
35 - CDM 'Principles Of Lust' - 1991
pic
Исполнитель: Enigma
Альбом: CDM 'Principles Of Lust'
Тип релиза: Макси-сингл [CDM]
Жанр: New Age
Дата выпуска: 1991
Страна: EU
Формат: WV (image+cue)
Битрейт: 853 kbps
Продолжительность: 00:16:14

Треклист:
01. Principles Of Lust (Radio Edit) [00:03:26]
02. Principles Of Lust (Everlasting Lust Mix) [00:05:08]
03. Principles Of Lust (Album Version) [00:04:31]
04. Principles Of Lust (Jazz Mix) [00:03:07]
Отчёт EAC
EAC extraction logfile from 3. November 2007, 6:23 for CD
Enigma / CDM "Principles Of Lust"

Used drive : HL-DT-STDVD-RAM GSA-H20L Adapter: 0 ID: 0
Read mode : Secure with NO C2, accurate stream, disable cache
Read offset correction : 102
Overread into Lead-In and Lead-Out : No

Used output format : Internal WAV Routines
44.100 Hz; 16 Bit; Stereo

Other options :
Fill up missing offset samples with silence : Yes
Delete leading and trailing silent blocks : No
Installed external ASPI interface

Range status and errors
Selected range
Filename C:\_Enigma\Singles\[1991] Principles Of Lust\Principles Of Lust (CDM).wav

Peak level 100.0 %
Range quality 100.0 %
CRC 7C5AE22E
Copy OK

No errors occured

End of status report
36 - CDM 'The Rivers Of Belief' - 1991
pic
Исполнитель: Enigma
Альбом: CDM 'The Rivers Of Belief'
Тип релиза: Макси-сингл [CDM]
Жанр: New Age
Дата выпуска: 1991
Страна: EU
Формат: WV (image+cue)
Битрейт: 930 kbps
Продолжительность: 00:15:49

Треклист:
01. The Rivers Of Belief (Radio Edit) [00:04:20]
02. The Rivers Of Belief (Extended Version) [00:07:44]
03. Knocking On Forbidden Doors [00:03:44]
Отчёт EAC
EAC extraction logfile from 3. November 2007, 4:19 for CD
Enigma / CDM "The Rivers Of Belief"

Used drive : HL-DT-STDVD-RAM GSA-H20L Adapter: 0 ID: 0
Read mode : Secure with NO C2, accurate stream, disable cache
Read offset correction : 102
Overread into Lead-In and Lead-Out : No

Used output format : Internal WAV Routines
44.100 Hz; 16 Bit; Stereo

Other options :
Fill up missing offset samples with silence : Yes
Delete leading and trailing silent blocks : No
Installed external ASPI interface

Range status and errors
Selected range
Filename C:\_Enigma\Singles\[1991] The Rivers Of Belief\The Rivers Of Belief (CDM).wav

Peak level 99.0 %
Range quality 99.9 %
CRC D8648538
Copy OK
No errors occured
End of status report
37 - CDM Carly's Song - 1993
pic
Исполнитель: Enigma
Альбом: Carly's Song
Тип релиза: Макси-сингл [CDM]
Жанр: New Age
Дата выпуска: 1993
Страна: EU
Формат: WV (image+cue)
Битрейт: 837 kbps
Продолжительность: 00:17:26

Треклист:
01. Carly's Song [00:03:45]
02. Carly's Song (Jam & Spoon Remix) [00:06:29]
03. Carly's Loneliness [00:03:11]
04. Carly's Song (Instrumental) [00:03:58]
Отчёт EAC
Exact Audio Copy V0.99 prebeta 4 from 23. January 2008

EAC extraction logfile from 11. December 2008, 22:44

Enigma / Carly's Song

Used drive : TSSTcorpCDDVDW SH-S203P Adapter: 4 ID: 0

Read mode : Secure
Utilize accurate stream : Yes
Defeat audio cache : Yes
Make use of C2 pointers : No

Read offset correction : 6
Overread into Lead-In and Lead-Out : No
Fill up missing offset samples with silence : Yes
Delete leading and trailing silent blocks : No
Null samples used in CRC calculations : Yes
Used interface : Installed external ASPI interface

Used output format : Internal WAV Routines
Sample format : 44.100 Hz; 16 Bit; Stereo

TOC of the extracted CD

Track | Start | Length | Start sector | End sector
---------------------------------------------------------
1 | 0:00.00 | 3:48.15 | 0 | 17114
2 | 3:48.15 | 6:31.65 | 17115 | 46504
3 | 10:20.05 | 3:13.22 | 46505 | 61001
4 | 13:33.27 | 4:00.48 | 61002 | 79049

Range status and errors

Selected range

Filename F:\Torrents\Enigma Singles\Enigma - 1993 - Carly's Song\Enigma - Carly's Song.wav

Peak level 97.2 %
Range quality 100.0 %
Copy CRC D0B25329
Copy OK

No errors occurred

End of status report
38 - CDM 'Return To Innocence' - 1993
pic
Исполнитель: Enigma
Альбом: CDM 'Return To Innocence'
Тип релиза: Сингл [CDS]
Жанр: New Age
Дата выпуска: 1993
Формат: WV (image+cue)
Битрейт: 942 kbps
Продолжительность: 00:20:06

Треклист:
01. Return To Innocence (Radio Edit) [00:04:08]
02. Return To Innocence (Long & Alive Version) [00:07:05]
03. Return To Innocence (380 Midnight Mix) [00:05:53]
04. Return To Innocence (Short Radio Edit) [00:02:59]
Отчёт EAC
EAC extraction logfile from 3. November 2007, 4:05 for CD
Enigma / CDM "Return To Innocence"

Used drive : HL-DT-STDVD-RAM GSA-H20L Adapter: 0 ID: 0
Read mode : Secure with NO C2, accurate stream, disable cache
Read offset correction : 102
Overread into Lead-In and Lead-Out : No

Used output format : Internal WAV Routines
44.100 Hz; 16 Bit; Stereo

Other options :
Fill up missing offset samples with silence : Yes
Delete leading and trailing silent blocks : No
Installed external ASPI interface

Range status and errors
Selected range
Filename C:\_Enigma\Singles\[1993] Return To Innocence\Return To Innocence (CDM).wav

Peak level 100.0 %
Range quality 100.0 %
CRC C9A92E2A
Copy OK

No errors occured

End of status report
39 - CDM 'Age Of Loneliness' - 1994
pic
Исполнитель: Enigma
Альбом: CDM 'Age Of Loneliness'
Тип релиза: Макси-сингл [CDM]
Жанр: New Age
Дата выпуска: 1994
Страна: EU
Формат: WV (image+cue)
Битрейт: 886 kbps
Продолжительность: 00:25:55

Треклист:
01. Age Of Loneliness (Radio Edit) [00:04:14]
02. Age Of Loneliness (Clubby Radio Edit) [00:03:31]
03. Age Of Loneliness (Enigmatic Club Mix) [00:06:21]
04. Age Of Loneliness (Jam & Spoon Remix) [00:06:29]
05. Age Of Loneliness (Album Version) [00:05:18]
Отчёт EAC
EAC extraction logfile from 3. November 2007, 6:06 for CD
Enigma / CDM "Age Of Loneliness"

Used drive : HL-DT-STDVD-RAM GSA-H20L Adapter: 0 ID: 0
Read mode : Secure with NO C2, accurate stream, disable cache
Read offset correction : 102
Overread into Lead-In and Lead-Out : No

Used output format : Internal WAV Routines
44.100 Hz; 16 Bit; Stereo

Other options :
Fill up missing offset samples with silence : Yes
Delete leading and trailing silent blocks : No
Installed external ASPI interface

Range status and errors
Selected range
Filename C:\_Enigma\Singles\[1994] Age Of Loneliness\Age Of Loneliness (CDM).wav

Peak level 99.3 %
Range quality 100.0 %
CRC 0ADD7A2A
Copy OK

No errors occured

End of status report
40 - CDM 'Out From The Deep' - 1994
pic
Исполнитель: Enigma
Альбом: CDM 'Out From The Deep'
Тип релиза: Макси-сингл [CDM]
Жанр: New Age
Дата выпуска: 1994
Страна: EU
Формат: WV (image+cue)
Битрейт: 916 kbps
Продолжительность: 00:20:26

Треклист:
01. Out From The Deep (Radio Edit) [00:04:30]
02. Out From The Deep (Rock Version) [00:06:41]
03. Out From The Deep (Trance Mix) [00:05:48]
04. Out From The Deep (Short Radio Edit) [00:03:25]
Отчёт EAC
EAC extraction logfile from 3. November 2007, 3:32 for CD
Enigma / CDM "Out From The Deep"

Used drive : HL-DT-STDVD-RAM GSA-H20L Adapter: 0 ID: 0
Read mode : Secure with NO C2, accurate stream, disable cache
Read offset correction : 102
Overread into Lead-In and Lead-Out : No

Used output format : Internal WAV Routines
44.100 Hz; 16 Bit; Stereo

Other options :
Fill up missing offset samples with silence : Yes
Delete leading and trailing silent blocks : No
Installed external ASPI interface

Range status and errors
Selected range
Filename C:\_Enigma\Singles\[1994] Out From The Deep\Out From The Deep (CDM).wav

Peak level 100.0 %
Range quality 99.9 %
CRC 94092F72
Copy OK

No errors occured

End of status report
41 - CDM 'The Eyes Of Truth' - 1994
pic
Исполнитель: Enigma
Альбом: CDM 'The Eyes Of Truth'
Тип релиза: Макси-сингл [CDM]
Жанр: New Age
Дата выпуска: 1994
Страна: EU
Формат: WV (image+cue)
Битрейт: 946 kbps
Продолжительность: 00:24:52

Треклист:
01. The Eyes Of Truth (Radio Edit) [00:04:36]
02. The Eyes Of Truth (Album Version) [00:07:26]
03. The Eyes Of Truth (The Gotterdammerung Mix) [00:07:17]
04. The Eyes Of Truth (Dub Version) [00:05:31]
Отчёт EAC
EAC extraction logfile from 3. November 2007, 5:47 for CD
Enigma / CDM "The Eyes Of Truth"

Used drive : HL-DT-STDVD-RAM GSA-H20L Adapter: 0 ID: 0
Read mode : Secure with NO C2, accurate stream, disable cache
Read offset correction : 102
Overread into Lead-In and Lead-Out : No

Used output format : Internal WAV Routines
44.100 Hz; 16 Bit; Stereo

Other options :
Fill up missing offset samples with silence : Yes
Delete leading and trailing silent blocks : No
Installed external ASPI interface

Range status and errors
Selected range
Filename C:\_Enigma\Singles\[1994] The Eyes Of Truth\The Eyes Of Truth (CDM).wav

Peak level 100.0 %
Range quality 100.0 %
CRC 067565D9
Copy OK

No errors occured

End of status report
42 - CDM Beyond The Invisible - 1996
pic
Исполнитель: Enigma
Альбом: Beyond The Invisible
Тип релиза: Макси-сингл [CDM]
Жанр: New Age
Дата выпуска: 1996
Страна: EU
Формат: WV (image+cue)
Битрейт: 921 kbps
Продолжительность: 00:21:09

Треклист:
01. Beyond The Invisible (Radio Edit) [00:04:35]
02. Almost Full Moon [00:03:40]
03. Beyond The Invisible (Album Version) [00:05:04]
04. Light Of Your Smile [00:04:42]
05. Beyond The Invisible (Short Radio Edit) [00:03:06]
Отчёт EAC
EAC extraction logfile from 3. November 2007, 5:10 for CD
Enigma / Beyond The Invisible

Used drive : HL-DT-STDVD-RAM GSA-H20L Adapter: 0 ID: 0
Read mode : Secure with NO C2, accurate stream, disable cache
Read offset correction : 102
Overread into Lead-In and Lead-Out : No

Used output format : Internal WAV Routines
44.100 Hz; 16 Bit; Stereo

Other options :
Fill up missing offset samples with silence : Yes
Delete leading and trailing silent blocks : No
Installed external ASPI interface

Range status and errors
Selected range
Filename C:\_Enigma\Singles\[1996] Beyond The Invisible\Beyond The Invisible (CDM).wav

Peak level 100.0 %
Range quality 100.0 %
CRC 790CBCE6
Copy OK

No errors occured

End of status report
43 - CDM T.N.T. For The Brain - 1997
pic
Исполнитель: Enigma
Альбом: T.N.T. For The Brain
Тип релиза: Макси-сингл [CDM]
Жанр: New Age
Дата выпуска: 1997
Страна: EU
Формат: WV (image+cue)
Битрейт: 894 kbps
Продолжительность: 00:18:38

Треклист:
01. T.N.T. For The Brain (Radio Edit) [00:04:01]
02. T.N.T. For The Brain (Midnight Man Remix) [00:05:56]
03. T.N.T. For The Brain (Album Version) [00:04:33]
04. T.N.T. For The Brain (Instrumental Mix) [00:04:06]
Отчёт EAC
Exact Audio Copy V0.99 prebeta 3 from 28. July 2007

EAC extraction logfile from 14. December 2008, 14:35

Enigma / T.N.T. For The Brain

Used drive : TSSTcorpCDDVDW SH-S203B Adapter: 2 ID: 0

Read mode : Secure
Utilize accurate stream : Yes
Defeat audio cache : Yes
Make use of C2 pointers : No

Read offset correction : 6
Overread into Lead-In and Lead-Out : No
Fill up missing offset samples with silence : Yes
Delete leading and trailing silent blocks : No
Null samples used in CRC calculations : Yes
Used interface : Native Win32 interface for Win NT & 2000

Used output format : Monkey's Audio Lossless Encoder v3.99 DLL
Sample format : Normal Lossless Compression

TOC of the extracted CD

Track | Start | Length | Start sector | End sector
---------------------------------------------------------
1 | 0:00.32 | 4:03.68 | 32 | 18324
2 | 4:04.25 | 5:57.62 | 18325 | 45161
3 | 10:02.12 | 4:35.38 | 45162 | 65824
4 | 14:37.50 | 4:07.57 | 65825 | 84406

Range status and errors

Selected range

Filename E:\01 Audio\CD IMAGES\Enigma\Singles\1997 T.N.T. For The Brain\Enigma - T.N.T. For The Brain.ape

Peak level 100.0 %
Range quality 100.0 %
Test CRC 18751A44
Copy CRC 18751A44
Copy OK

No errors occurred
End of status report
44 - CDM 'Gravity Of Love' - 1999
pic
Исполнитель: Enigma
Альбом: CDM 'Gravity Of Love'
Тип релиза: Макси-сингл [CDM]
Жанр: New Age
Дата выпуска: 1999
Страна: EU
Формат: WV (image+cue)
Битрейт: 833 kbps
Продолжительность: 00:15:27

Треклист:
01. Gravity Of Love (Radio Edit) [00:03:58]
02. Gravity Of Love (Judgement Day Club Mix) [00:05:31]
03. Gravity Of Love (Dark Vocal Club Mix) [00:05:57]
Отчёт EAC
EAC extraction logfile from 3. November 2007, 5:27 for CD
Enigma / CDM "Gravity Of Love"

Used drive : HL-DT-STDVD-RAM GSA-H20L Adapter: 0 ID: 0
Read mode : Secure with NO C2, accurate stream, disable cache
Read offset correction : 102
Overread into Lead-In and Lead-Out : No

Used output format : Internal WAV Routines
44.100 Hz; 16 Bit; Stereo

Other options :
Fill up missing offset samples with silence : Yes
Delete leading and trailing silent blocks : No
Installed external ASPI interface

Range status and errors
Selected range
Filename C:\_Enigma\Singles\[1999] Gravity Of Love\Gravity Of Love (CDM).wav

Peak level 99.0 %
Range quality 99.9 %
CRC 2CA85905
Copy OK

No errors occured

End of status report
45 - CDM 'Push The Limits' - 2000
pic
Исполнитель: Enigma
Альбом: CM 'Push The Limits'
Тип релиза: Макси-сингл [CDM]
Жанр: New Age
Дата выпуска: 2000
Страна: EU
Формат: WV (image+cue)
Битрейт: 899 kbps
Продолжительность: 00:16:01

Треклист:
01. Push The Limits (Radio Edit) [00:03:52]
02. Push The Limits (ATB Radio Remix) [00:03:37]
03. Push The Limits (ATB Remix) [00:08:31]
Отчёт EAC
EAC extraction logfile from 3. November 2007, 3:46 for CD
Enigma / CM "Push The Limits"

Used drive : HL-DT-STDVD-RAM GSA-H20L Adapter: 0 ID: 0
Read mode : Secure with NO C2, accurate stream, disable cache
Read offset correction : 102
Overread into Lead-In and Lead-Out : No

Used output format : Internal WAV Routines
44.100 Hz; 16 Bit; Stereo

Other options :
Fill up missing offset samples with silence : Yes
Delete leading and trailing silent blocks : No
Installed external ASPI interface

Range status and errors
Selected range
Filename C:\_Enigma\Singles\[2000] Push The Limits\Push The Limits (CDM).wav

Peak level 99.7 %
Range quality 100.0 %
CRC 755D4ABF
Copy OK

No errors occured

End of status report
46 - CDM 'Turn Around' - 2001
pic
Исполнитель: Enigma
Альбом: CDM 'Turn Around'
Тип релиза: Макси-сингл [CDM]
Жанр: New Age
Дата выпуска: 2001
Страна: EU
Формат: WV (image+cue)
Битрейт: 777 kbps
Продолжительность: 00:19:59

Треклист:
01. Turn Around (Radio Edit) [00:03:53]
02. Turn Around (Northern Lights Club Mix) [00:10:40]
03. Gravity Of Love (Chilled Club Mix) [00:05:24]
Отчёт EAC
EAC extraction logfile from 3. November 2007, 3:09 for CD
Enigma / CDM "Turn Around"

Used drive : HL-DT-STDVD-RAM GSA-H20L Adapter: 0 ID: 0
Read mode : Secure with NO C2, accurate stream, disable cache
Read offset correction : 102
Overread into Lead-In and Lead-Out : No

Used output format : Internal WAV Routines
44.100 Hz; 16 Bit; Stereo

Other options :
Fill up missing offset samples with silence : Yes
Delete leading and trailing silent blocks : No
Installed external ASPI interface

Range status and errors
Selected range
Filename C:\_Enigma\Singles\[2001] Turn Around\Turn Around (CDM).wav

Peak level 99.9 %
Range quality 100.0 %
CRC C2AFD5B9
Copy OK

No errors occured

End of status report
47 - CDM 'Following The Sun' - 2003
pic
Исполнитель: Enigma
Альбом: CDM 'Following The Sun'
Тип релиза: Макси-сингл [CDM]
Жанр: New Age
Дата выпуска: 2003
Страна: EU
Формат: WV (image+cue)
Битрейт: 932 kbps
Продолжительность: 00:14:08

Треклист:
01. Following The Sun (Radio Edit) [00:04:18]
02. Following The Sun (Album Edit) [00:05:19]
03. Voyageur (Fab 4 Mix) [00:04:29]
Отчёт EAC
EAC extraction logfile from 3. November 2007, 1:22 for CD
Enigma / CDM "Following The Sun"

Used drive : HL-DT-STDVD-RAM GSA-H20L Adapter: 0 ID: 0
Read mode : Secure with NO C2, accurate stream, disable cache
Read offset correction : 102
Overread into Lead-In and Lead-Out : No

Used output format : Internal WAV Routines
44.100 Hz; 16 Bit; Stereo

Other options :
Fill up missing offset samples with silence : Yes
Delete leading and trailing silent blocks : No
Installed external ASPI interface

Range status and errors
Selected range
Filename C:\_Enigma\Singles\[2003] Following The Sun\Following The Sun (CDM).wav

Peak level 99.0 %
Range quality 99.9 %
CRC 327519CC
Copy OK

No errors occured

End of status report
48 - CDM 'Voyageur' - 2003
pic
Исполнитель: Enigma
Альбом: CDM 'Voyageur'
Тип релиза: Макси-сингл [CDM]
Жанр: New Age
Дата выпуска: 2003
Страна: EU
Формат: WV (image+cue)
Битрейт: 823 kbps
Продолжительность: 00:20:40

Треклист:
01. Voyageur (Radio Edit) [00:03:52]
02. Voyageur (Club Mix) [00:06:21]
03. Voyageur (Chillout Mix) [00:04:56]
04. Voyageur (Dance Mix) [00:05:29]
Отчёт EAC
EAC extraction logfile from 3. November 2007, 8:22 for CD
Enigma / CDM "Voyageur"

Used drive : HL-DT-STDVD-RAM GSA-H20L Adapter: 0 ID: 0
Read mode : Secure with NO C2, accurate stream, disable cache
Read offset correction : 102
Overread into Lead-In and Lead-Out : No

Used output format : Internal WAV Routines
44.100 Hz; 16 Bit; Stereo

Other options :
Fill up missing offset samples with silence : Yes
Delete leading and trailing silent blocks : No
Installed external ASPI interface

Range status and errors
Selected range
Filename C:\_Enigma\Singles\[2003] Voyageur\Voyageur (CDM).wav

Peak level 99.3 %
Range quality 100.0 %
CRC 99E9F466
Copy OK

No errors occured

End of status report
49 - Promo CDS 'Boum-Boum' - 2004
pic
Исполнитель: Enigma
Альбом: Promo CDS 'Boum-Boum'
Тип релиза: Макси-сингл [CDM]
Жанр: New Age
Дата выпуска: 2004
Страна: EU
Формат: WV (image+cue)
Битрейт: 911 kbps
Продолжительность: 00:10:45

Треклист:
01. Boum-Boum (Chicane Radio Edit) [00:03:39]
02. Boum-Boum (Enigma Radio Edit) [00:03:43]
03. Boum-Boum (Wally Lopez Radio Edit) [00:03:22]
Отчёт EAC
EAC extraction logfile from 3. November 2007, 8:55 for CD
Enigma / Promo CDS "Boum-Boum"

Used drive : HL-DT-STDVD-RAM GSA-H20L Adapter: 0 ID: 0
Read mode : Secure with NO C2, accurate stream, disable cache
Read offset correction : 102
Overread into Lead-In and Lead-Out : No

Used output format : Internal WAV Routines
44.100 Hz; 16 Bit; Stereo

Other options :
Fill up missing offset samples with silence : Yes
Delete leading and trailing silent blocks : No
Installed external ASPI interface

Range status and errors
Selected range
Filename C:\_Enigma\Singles\[2004] Boum-Boum\Boum-Boum (CDS).wav

Peak level 100.0 %
Range quality 100.0 %
CRC 1D9D2037
Copy OK

No errors occured

End of status report
50 - CDM 'Hello + Welcome' - 2006
pic
Исполнитель: Enigma
Альбом: CDM 'Hello + Welcome'
Тип релиза: Макси-сингл [CDM]
Жанр: New Age
Дата выпуска: 2006
Страна: EU
Формат: WV (image+cue)
Битрейт: 773 kbps
Продолжительность: 00:16:09

Треклист:
01. Hello + Welcome (Radio Edit) [00:03:30]
02. Hello + Welcome (Thunderstorm Mix) [00:06:09]
03. Hello + Welcome (After The Storm Mix) [00:06:29]
Отчёт EAC
EAC extraction logfile from 3. November 2007, 2:49 for CD
Enigma / CDM "Hello + Welcome"

Used drive : HL-DT-STDVD-RAM GSA-H20L Adapter: 0 ID: 0
Read mode : Secure with NO C2, accurate stream, disable cache
Read offset correction : 102
Overread into Lead-In and Lead-Out : No

Used output format : Internal WAV Routines
44.100 Hz; 16 Bit; Stereo

Other options :
Fill up missing offset samples with silence : Yes
Delete leading and trailing silent blocks : No
Installed external ASPI interface

Range status and errors
Selected range
Filename C:\_Enigma\Singles\[2005] Hallo And Welcome\Hello + Welcome.wav

Peak level 99.1 %
Range quality 100.0 %
CRC 9655AF4D
Copy OK

No errors occured

End of status report
51 - CDM Seven Lives\La Puerta Del Cielo - 2008
pic
Исполнитель: Enigma
Альбом: Seven Lives\La Puerta Del Cielo
Тип релиза: Макси-сингл [CDM]
Жанр: New Age
Дата выпуска: 2008
Страна: EU
Формат: WV (image+cue)
Битрейт: 821 kbps
Продолжительность: 00:07:53

Треклист:
01. La Puerta Del Cielo [00:03:28]
02. Seven Lives [00:04:25]
Отчёт EAC
Exact Audio Copy V0.99 prebeta 5 from 4. May 2009

Отчёт EAC об извлечении, выполненном 30. декабря 2009, 11:30

Enigma / Seven Lives\La Puerta Del Cielo

Дисковод: PIONEER DVD-RW DVR-115D Adapter: 0 ID: 0

Режим чтения : Достоверность
Использование точного потока : Да
Отключение кэша аудио : Да
Использование указателей C2 : Нет

Коррекция смещения при чтении : 48
Способность читать области Lead-in и Lead-out : Нет
Заполнение пропущенных сэмплов тишиной : Да
Удаление блоков с тишиной в начале и конце : Нет
При вычислениях CRC использовались нулевые сэмплы : Да
Интерфейс : Установленный внешний ASPI-интерфейс

Выходной формат : Внутренние WAV-операции
Формат сэмплов : 44.100 Гц; 16 бит; стерео
Смещение при сжатии : 6

TOC извлечённого CD

Трек | Старт | Длительность | Начальный сектор | Конечный сектор
---------------------------------------------------------------------
1 | 0:00.00 | 3:28.15 | 0 | 15614
2 | 3:28.15 | 4:25.27 | 15615 | 35516

Характеристики диапазона извлечения и сообщения об ошибках

Выбранный диапазон
Имя файла J:\Enigma - Discography\SINGLES\Enigma-2008-Seven.Lives_La.Puerta.Del.Cielo.(СDM).iso.wv\Enigma - Seven Lives La Puerta Del Cielo.wav

Пиковый уровень 100.0 %
Качество диапазона 99.9 %
CRC копии 1D075FF1
Копирование... OK
Ошибок не произошло
Конец отчёта
Аудиокодек:WAVPack
Битрейт аудио: lossless
Enigma LOSSLESS.torrent
 СЕРЕБРЯНАЯ РАЗДАЧА! СКАЧАННОЕ ЗАСЧИТЫВАЕТСЯ ТОЛЬКО НАПОЛОВИНУ! 
Вечный
Трекер: Зарегистрирован

magnet ссылка

 


Скачать .torrent

119 KB

Статус: проверено (by Mateo в 23-Окт-10 18:41)
Зарегистрирован: 22-Окт-10 22:13
Скачан: 507 раз
Размер: 13.7 GB | 
Поблагодарили:
Скачать (New Age , Electronic) Enigma - Дискография (1990 - 2009), WAVPack (image + .cue), lossless торрент
 


Похожие раздачи

Theseus

post 22-Окт-10 22:24 (спустя 10 минут)

Переделал.Раньше были ограничения на знаки...

Tanck

post 22-Окт-10 22:44 (спустя 19 минут)

Вах вах, спасибо =)

-)-C-r-A-c-K-(-

post 23-Окт-10 15:24 (спустя 16 часов)

rost55
Так, я все закинул....
Ознакомься
Данные раставь в таком порядке. Остальое сноси !

Код:

Год выпуска
Жанр
Продолжительность
Тип издания
Треклист

Аудиокодек:
Битрейт

Piton91

post 10-Дек-10 03:51 (спустя 1 месяц 17 дней)

РЕСПЕКТ ТЕБЕ.....СПАСИБО ОГРОМНОЕ ДАВНО ИСКАЛ ПОЛНОЕ СОБРАНИЕ,,,,,СПАСИБО ЕЩЕ РАЗ

добавлено спустя 52 минуты:

СКОРОСТИ ДАЙ ПЛИЗЗЗЗЗЗЗЗЗЗЗЗ

Theseus

post 11-Дек-10 22:51 (спустя 1 день 19 часов)

Ц Piton91 писал(а):

РЕСПЕКТ ТЕБЕ.....СПАСИБО ОГРОМНОЕ ДАВНО ИСКАЛ ПОЛНОЕ СОБРАНИЕ,,,,,СПАСИБО ЕЩЕ РАЗ

добавлено спустя 52 минуты:

СКОРОСТИ ДАЙ ПЛИЗЗЗЗЗЗЗЗЗЗЗЗ
Всегда пожалуйста.

Когда я на раздаче - скорость отдачи:
Мир - 8 Mbps
Украина(UA-IX) - 100 Mbps

Flatws

post 12-Дек-10 20:18 (спустя 21 час)

ОООООООООООООООгромное спасибо!!!!!!!!!!!!!!!!!!

demons696

post 17-Фев-11 11:37 (спустя 2 месяца 4 дня)

Огромное спасибо автору раздачи!!!Вечером качну :up: Респект clap

yxan777

post 14-Июн-11 18:59 (спустя 3 месяца 25 дней)

Вот это размерчик???Вот это Энигма??? :thankyou: :bayan:

Igor_1974

post 16-Авг-11 16:33 (спустя 2 месяца 1 день)

Люди - раздайте плиз

Igor_1974

post 18-Авг-11 08:07 (спустя 1 день 15 часов)

Автор - плюсик тебе за отличную раздачу!

victor_15

post 06-Окт-11 22:09 (спустя 1 месяц 19 дней)

Раздача супер, согласен, только вот на раздаче один человек!?!? Хотелось бы докачать, потом помогу с раздачей.

61rus

post 02-Май-12 15:34 (спустя 6 месяцев)

Встаньте на раздачу, плиз.

jozzzik

post 21-Июл-13 19:38 (спустя 1 год 2 месяца)

Качаю,помогу с раздачей ;)

Juice68

post 19-Сен-15 00:51 (спустя 2 года 1 месяц)

Норм качество. Спс

Текущее время: 26-Июн 15:02

Часовой пояс: GMT + 3



Вы не можете начинать темы
Вы не можете отвечать на сообщения
Вы не можете редактировать свои сообщения
Вы не можете удалять свои сообщения
Вы не можете голосовать в опросах
Вы не можете прикреплять файлы к сообщениям
Вы не можете скачивать файлы