Loading...
Error
 

Скачать торрент Angry Birds в кино / The Angry Birds Movie (Клэй Кэйтис, Фергал Рейли) [2016, мультфильм, боевик, комедия, семейный, BDRip 720p] [60 fps] [Лицензия]

 
Автор Сообщение

blacKK

post 19-Сен-16 20:03




Angry Birds в кино / The Angry Birds Movie


pic
picГод выпуска: 2016
picСтрана: США, Финляндия
picЖанр: мультфильм, боевик, комедия, семейный
picПродолжительность: 01:37:13
picПеревод: Дублированный
picСубтитры: Русские | Полные, Английские | Полные
picВ ролях: Джейсон Судейкис, Джош Гад, Дэнни МакБрайд, Майя Рудольф, Билл Хейдер, Питер Динклэйдж, Шон Пенн, Кигэн-Майкл Ки, Кейт МакКиннон, Тони Хейл
picРежиссёр: Клэй Кэйтис, Фергал Рейли
picОписание: Фильм расскажет о том, как началось знаменитое противостояние птичек и свинок, персонажей популярной компьютерной игры, а также раскроет некоторые секреты любимых героев.
picКачество: BDRip 720p
picФормат: MKV
picВидео кодек: AVC
picАудио кодек: AC3
picВидео: 1280x692, 5597 Кбит/сек, 59.940 кадр/сек, AVC, x264, [email protected], 1.85:1, 0.105 Бит/[Пиксели*Кадры]
picАудио: AC-3, 640 Кбит/сек, 6 канала(ов), 48,0 КГц - Дублированный / Русский
picАудио: AC-3, 640 Кбит/сек, 6 канала(ов), 48,0 КГц - Оригинал / Английский
pic pic
Рейтинг
MediaInfo

Код:

Format : Matroska
Format version : Version 2
File size : 4.77 GiB
Duration : 1h 37mn
Overall bit rate : 7 016 Kbps
Movie name : The Angry Birds Movie.(2016).BDRip.720p.[envy].[60fps]
Encoded date : UTC 2016-09-11 12:09:35
Writing application : mkvmerge v5.8.0 ('No Sleep / Pillow') built on Sep 2 2012 15:37:04
Writing library : libebml v1.2.3 + libmatroska v1.3.0

Video
ID : 1
Format : AVC
Format/Info : Advanced Video Codec
Format profile : [email protected]
Format settings, CABAC : Yes
Format settings, ReFrames : 9 frames
Codec ID : V_MPEG4/ISO/AVC
Duration : 1h 37mn
Bit rate : 5 597 Kbps
Width : 1 280 pixels
Height : 692 pixels
Display aspect ratio : 1.85:1
Frame rate mode : Constant
Frame rate : 59.940 (60000/1001) fps
Color space : YUV
Chroma subsampling : 4:2:0
Bit depth : 8 bits
Scan type : Progressive
Bits/(Pixel*Frame) : 0.105
Stream size : 3.80 GiB (80%)
Title : The Angry Birds Movie.(2016).BDRip.720p.[envy].[60fps]
Writing library : x264 core 146 r2538 121396c
Encoding settings : cabac=1 / ref=9 / deblock=1:0:0 / analyse=0x3:0x113 / me=umh / subme=9 / psy=1 / psy_rd=1.00:0.00 / mixed_ref=1 / me_range=24 / chroma_me=1 / trellis=2 / 8x8dct=1 / cqm=0 / deadzone=21,11 / fast_pskip=0 / chroma_qp_offset=-2 / threads=12 / lookahead_threads=1 / sliced_threads=0 / nr=0 / decimate=1 / interlaced=0 / bluray_compat=0 / constrained_intra=0 / bframes=5 / b_pyramid=2 / b_adapt=2 / b_bias=0 / direct=3 / weightb=1 / open_gop=0 / weightp=2 / keyint=250 / keyint_min=25 / scenecut=40 / intra_refresh=0 / rc_lookahead=40 / rc=crf / mbtree=0 / crf=18.0 / qcomp=0.60 / qpmin=0 / qpmax=69 / qpstep=4 / vbv_maxrate=14000 / vbv_bufsize=14000 / crf_max=0.0 / nal_hrd=none / filler=0 / ip_ratio=1.40 / pb_ratio=1.30 / aq=3:1.00
Language : English
Default : Yes
Forced : No

Audio #1
ID : 2
Format : AC-3
Format/Info : Audio Coding 3
Mode extension : CM (complete main)
Format settings, Endianness : Big
Codec ID : A_AC3
Duration : 1h 37mn
Bit rate mode : Constant
Bit rate : 640 Kbps
Channel(s) : 6 channels
Channel positions : Front: L C R, Side: L R, LFE
Sampling rate : 48.0 KHz
Frame rate : 31.250 fps (1536 spf)
Compression mode : Lossy
Stream size : 445 MiB (9%)
Title : Dub
Language : Russian
Default : Yes
Forced : No

Audio #2
ID : 3
Format : AC-3
Format/Info : Audio Coding 3
Mode extension : CM (complete main)
Format settings, Endianness : Big
Codec ID : A_AC3
Duration : 1h 37mn
Bit rate mode : Constant
Bit rate : 640 Kbps
Channel(s) : 6 channels
Channel positions : Front: L C R, Side: L R, LFE
Sampling rate : 48.0 KHz
Frame rate : 31.250 fps (1536 spf)
Compression mode : Lossy
Stream size : 445 MiB (9%)
Title : Eng
Language : English
Default : No
Forced : No

Text #1
ID : 4
Format : UTF-8
Codec ID : S_TEXT/UTF8
Codec ID/Info : UTF-8 Plain Text
Title : Rus forced
Language : Russian
Default : Yes
Forced : Yes

Text #2
ID : 5
Format : UTF-8
Codec ID : S_TEXT/UTF8
Codec ID/Info : UTF-8 Plain Text
Title : Rus full
Language : Russian
Default : No
Forced : No

Text #3
ID : 6
Format : UTF-8
Codec ID : S_TEXT/UTF8
Codec ID/Info : UTF-8 Plain Text
Title : Eng full
Language : English
Default : No
Forced : No

Menu
00:00:00.000 : :Chapter 01
00:07:05.091 : :Chapter 02
00:13:38.107 : :Chapter 03
00:20:22.637 : :Chapter 04
00:25:38.619 : :Chapter 05
00:32:57.392 : :Chapter 06
00:38:34.810 : :Chapter 07
00:41:36.327 : :Chapter 08
00:47:12.953 : :Chapter 09
00:52:04.286 : :Chapter 10
00:56:07.697 : :Chapter 11
00:59:08.710 : :Chapter 12
01:03:43.318 : :Chapter 13
01:11:45.801 : :Chapter 14
01:18:55.521 : :Chapter 15
01:23:54.820 : :Chapter 16
Скриншоты
The.Angry.Birds.Movie.(2016).BDRip.720p.(envy).(60fps).mkv.torrent
Трекер: Зарегистрирован

magnet ссылка

 


Скачать .torrent

12 KB

Статус: проверено (by DENZEL519 в 19-Сен-16 23:05)
Зарегистрирован: 19-Сен-16 20:03
Скачан: 203 раза
Размер: 4.77 GB | 
Поблагодарили:
Скачать Angry Birds в кино / The Angry Birds Movie (Клэй Кэйтис, Фергал Рейли) [2016, мультфильм, боевик, комедия, семейный, BDRip 720p] [60 fps] [Лицензия] торрент
 


Похожие раздачи

Текущее время: 10-Дек 15:53

Часовой пояс: GMT + 3



Вы не можете начинать темы
Вы не можете отвечать на сообщения
Вы не можете редактировать свои сообщения
Вы не можете удалять свои сообщения
Вы не можете голосовать в опросах
Вы не можете прикреплять файлы к сообщениям
Вы не можете скачивать файлы