Loading...
Error
 

Скачать торрент Deep Purple - From the Setting Sun ... in Wacken 2013 [2015 г., Hard Rock, BDRip-AVC]

 
Автор Сообщение

JPriest

post 12-Авг-16 10:05

Deep Purple - From the Setting Sun ... in Wacken 2013

pic
Страна: United Kingdom
Жанр: Hard Rock
Продолжительность: 01:35:29
Год выпуска: 2015 г.
Описание: Концерт группы на Wacken Open Air Festival 2013.

Треклист:
01. Highway Star
02. Into The Fire
03. Hard Lovin' Man
04. Vincent Price
05. Strange Kind of Woman
06. Contact Lost
07. The Well-Dressed Guitar
08. Hell To Pay
09. Lazy
10. Above And Beyond
11. No One Came
12. Don Airey's Solo
13. Perfect Strangers
14. Space Truckin'
15. Steve Morse and Uli Jon Roth - Improvisation
16. Smoke On The Water feat.Uli Jon Roth
17. Green Onions / Hush
18. Black Night

Качество: BDRip-AVC
Контейнер: MKV
Видео кодек: H.264
Аудио кодек: DTS
Видео: 720x400 (16:9); 2671 kbps
Аудио: 768 kbps; 48 KHz; 2 channels
Скриншоты
pic pic pic pic
MediaInfo + x264log
MI
Общее
Уникальный идентификатор : 232323668519161619427568073633749524903 (0xAEC7E9373C96A909AAB7CF58E393E1A7)
Полное имя : D:\MY VIDEO\Deep.Purple.-.From.the.Setting.Sun...(in.Wacken).2015.BDRip-AVC.mkv
Формат : Matroska
Версия формата : Version 4 / Version 2
Размер файла : 2,30 Гбайт
Продолжительность : 1 ч. 35 м.
Режим общего битрейта : Переменный
Общий поток : 3442 Кбит/сек
Дата кодирования : UTC 2016-08-12 06:33:48
Программа кодирования : mkvmerge v8.2.0 ('World of Adventure') 64bit
Библиотека кодирования : libebml v1.3.1 + libmatroska v1.4.2

Видео
Идентификатор : 1
Формат : AVC
Формат/Информация : Advanced Video Codec
Профиль формата : [email protected]
Параметр CABAC формата : Да
Параметр ReFrames формата : 7 кадров
Идентификатор кодека : V_MPEG4/ISO/AVC
Продолжительность : 1 ч. 35 м.
Вид битрейта : Переменный
Битрейт : 2671 Кбит/сек
Максимальный битрейт : 12,5 Мбит/сек
Ширина : 720 пикселей
Высота : 400 пикселей
Соотношение сторон : 16:9
Соотношение сторон в оригинале : 16:9
Режим частоты кадров : Постоянный
Частота кадров : 23,976 (24000/1001) кадра/сек
Цветовое пространство : YUV
Субдискретизация насыщенности : 4:2:0
Битовая глубина : 8 бит
Тип развёртки : Прогрессивная
Бит/(Пиксели*Кадры) : 0.387
Размер потока : 1,78 Гбайт (78%)
Библиотека кодирования : x264 core 148 r2638 7599210
Настройки программы : cabac=1 / ref=7 / deblock=1:-2:0 / analyse=0x3:0x133 / me=umh / subme=11 / psy=1 / psy_rd=1.12:0.06 / mixed_ref=1 / me_range=32 / chroma_me=1 / trellis=2 / 8x8dct=1 / cqm=0 / deadzone=21,11 / fast_pskip=0 / chroma_qp_offset=-3 / threads=9 / lookahead_threads=1 / sliced_threads=0 / nr=0 / decimate=1 / interlaced=0 / bluray_compat=0 / constrained_intra=0 / bframes=8 / b_pyramid=2 / b_adapt=2 / b_bias=0 / direct=3 / weightb=1 / open_gop=0 / weightp=2 / keyint=240 / keyint_min=23 / scenecut=40 / intra_refresh=0 / rc_lookahead=120 / rc=crf / mbtree=1 / crf=17.0 / qcomp=0.74 / qpmin=0 / qpmax=69 / qpstep=4 / vbv_maxrate=12500 / vbv_bufsize=12500 / crf_max=0.0 / nal_hrd=vbr / filler=0 / ip_ratio=1.40 / aq=2:1.20
Default : Да
Forced : Нет

Аудио
Идентификатор : 2
Формат : DTS
Формат/Информация : Digital Theater Systems
Режим : 16
Параметр Endianness формата : Big
Идентификатор кодека : A_DTS
Продолжительность : 1 ч. 35 м.
Вид битрейта : Постоянный
Битрейт : 768 Кбит/сек
Каналы : 2 канала
Расположение каналов : Front: L R
Частота : 48,0 КГц
Частота кадров : 93,750 кадра/сек (512 spf)
Битовая глубина : 16 бит
Метод сжатия : С потерями
Размер потока : 525 Мбайт (22%)
Default : Да
Forced : Нет

Меню
00:00:00.000 : en:Intro
00:01:57.367 : en:Highway Star
00:08:26.881 : en:Into The Fire
00:11:52.921 : en:Hard Lovin' Man
00:18:27.940 : en:Vincent Price
00:22:52.955 : en:Strange Kind of Woman
00:28:41.803 : en:Contact Lost
00:31:37.729 : en:The Well-Dressed Guitar
00:34:16.137 : en:Hell To Pay
00:39:19.440 : en:Lazy
00:47:16.584 : en:Above And Beyond
00:52:25.476 : en:No One Came
00:57:43.502 : en:Don Airey's Solo
01:00:42.138 : en:Perfect Strangers
01:06:46.586 : en:Space Truckin'
01:11:40.463 : en:Steve Morse and Uli Jon Roth - Improvisation
01:13:12.179 : en:Smoke On The Water feat.Uli Jon Roth
01:21:13.744 : en:Green Onions / Hush
01:28:29.054 : en:Black Night
x264log
[Information] [12.08.2016 7:09:39] raw [info]: 720x400p 1:1 @ 24000/1001 fps (cfr)
---[Warning] [12.08.2016 7:09:39] x264 [warning]: --psnr used with psy on: results will be invalid!
---[Warning] [12.08.2016 7:09:39] x264 [warning]: --tune psnr should be used if attempting to benchmark psnr!
---[Information] [12.08.2016 7:09:39] x264 [info]: using SAR=1/1
---[Information] [12.08.2016 7:09:39] x264 [info]: using cpu capabilities: MMX2 SSE2Fast LZCNT
---[Information] [12.08.2016 7:09:39] x264 [info]: profile High, level 3.0
---[Information] [12.08.2016 9:31:25] x264 [info]: frame I:2028 Avg QP:14.15 size: 70480 PSNR Mean Y:48.17 U:50.80 V:51.25 Avg:48.93 Global:48.52
---[Information] [12.08.2016 9:31:25] x264 [info]: frame P:34675 Avg QP:17.90 size: 25216 PSNR Mean Y:44.62 U:47.31 V:47.94 Avg:45.40 Global:44.92
---[Information] [12.08.2016 9:31:25] x264 [info]: frame B:100667 Avg QP:20.30 size: 8899 PSNR Mean Y:43.51 U:46.73 V:47.50 Avg:44.39 Global:43.85
---[Information] [12.08.2016 9:31:25] x264 [info]: consecutive B-frames: 3.8% 3.0% 11.3% 40.5% 20.5% 18.1% 1.8% 0.6% 0.4%
---[Information] [12.08.2016 9:31:25] x264 [info]: mb I I16..4: 5.5% 46.5% 48.1%
---[Information] [12.08.2016 9:31:25] x264 [info]: mb P I16..4: 2.2% 12.4% 3.8% P16..4: 25.4% 30.1% 16.3% 6.3% 1.5% skip: 2.0%
---[Information] [12.08.2016 9:31:25] x264 [info]: mb B I16..4: 0.8% 2.9% 0.7% B16..8: 29.9% 24.9% 6.2% direct:12.9% skip:21.6% L0:36.0% L1:36.4% BI:27.6%
---[Information] [12.08.2016 9:31:25] x264 [info]: 8x8 transform intra:63.6% inter:46.5%
---[Information] [12.08.2016 9:31:25] x264 [info]: direct mvs spatial:100.0% temporal:0.0%
---[Information] [12.08.2016 9:31:25] x264 [info]: coded y,uvDC,uvAC intra: 75.9% 85.9% 68.9% inter: 37.5% 38.3% 13.3%
---[Information] [12.08.2016 9:31:25] x264 [info]: i16 v,h,dc,p: 18% 15% 8% 59%
---[Information] [12.08.2016 9:31:25] x264 [info]: i8 v,h,dc,ddl,ddr,vr,hd,vl,hu: 12% 10% 13% 9% 10% 11% 10% 12% 14%
---[Information] [12.08.2016 9:31:25] x264 [info]: i4 v,h,dc,ddl,ddr,vr,hd,vl,hu: 15% 11% 8% 8% 12% 12% 11% 11% 13%
---[Information] [12.08.2016 9:31:25] x264 [info]: i8c dc,h,v,p: 39% 27% 19% 15%
---[Information] [12.08.2016 9:31:25] x264 [info]: Weighted P-Frames: Y:25.6% UV:21.4%
---[Information] [12.08.2016 9:31:25] x264 [info]: ref P L0: 50.6% 13.5% 15.0% 7.1% 5.1% 4.1% 3.5% 1.0% 0.2%
---[Information] [12.08.2016 9:31:25] x264 [info]: ref B L0: 81.8% 8.6% 4.5% 2.9% 1.4% 0.7%
---[Information] [12.08.2016 9:31:25] x264 [info]: ref B L1: 94.2% 5.8%
---[Information] [12.08.2016 9:31:25] x264 [info]: SSIM Mean Y:0.9881297 (19.255db)
---[Information] [12.08.2016 9:31:25] x264 [info]: PSNR Mean Y:43.859 U:46.936 V:47.663 Avg:44.714 Global:44.139 kb/s:2671.23
---[Information] [12.08.2016 9:31:25] encoded 137370 frames, 16.14 fps, 2671.23 kb/s
Скриншоты сравнения с BD и DVD
Deep.Purple.-.From.the.Setting.Sun...(in.Wacken).2015.BDRip-AVC.torrent
Трекер: Зарегистрирован

magnet ссылка

 


Скачать .torrent

12 KB

Статус: проверено (by E IL o T IR i X в 12-Авг-16 17:03)
Зарегистрирован: 12-Авг-16 10:05
Скачан: 31 раз
Размер: 2.3 GB | 
Поблагодарили:
Скачать Deep Purple - From the Setting Sun ... in Wacken 2013 [2015 г., Hard Rock, BDRip-AVC] торрент
 


Похожие раздачи

nemez63

post 12-Авг-16 13:24 (спустя 3 часа)

:up:

Seregabig

post 12-Авг-16 13:47 (спустя 23 минуты)

:-P

JPriest

post 09-Янв-17 08:12 (спустя 4 месяца 27 дней)

Если у кого рядом этот концерт лежит, встаньте, пожалуйста на раздачу.
А то я посеял данный рип,. а люди просят.

Текущее время: 10-Дек 16:22

Часовой пояс: GMT + 3



Вы не можете начинать темы
Вы не можете отвечать на сообщения
Вы не можете редактировать свои сообщения
Вы не можете удалять свои сообщения
Вы не можете голосовать в опросах
Вы не можете прикреплять файлы к сообщениям
Вы не можете скачивать файлы