Loading...
Error
 
Мини-чат
 

Скачать торрент (Disco, pop, dance, ballad) VA - $uper DISCOTEKA 70s-80s 5CD (2015) FLAC (tracks+.cue ), lossless



 
Автор Сообщение

westwool

post 28-Дек-15 07:21

pic
VA - $uper DISCOTEKA 70s-80s

Год выпуска: 2015
Жанр: Disco, pop, dance, ballad
Продолжительность: 06:40:36
Тип рипа: tracks+.cue
Формат: FLAC
Битрейт: lossless
треклист:
• Disc 1 [01:19:57]
01. Boney M. - Rasputin (7:32)
02. Sabrina - Boys (Sommertime Love) (3:52)
03. Toni Esposito - Kalimba De Luna (4:59)
04. Pupo - Burattino Telecomandato (3:01)
05. Al Bano & Romina Power - Ci Sara (3:26)
06. Desireless - Voyage Voyage (4:19)
07. Eruption - One Way Ticket (3:33)
08. Michael Jackson - Billie Jean (4:52)
09. Mike Oldfield feat. Maggie Reilly - Moonlight Shadow (3:34)
10. Fancy - Flames Of Love (4:00)
11. Blondie - Call Me (3:25)
12. Demis Roussos - From Souvenirs To Souvenirs (2:31)
13. Bananarama - Venus (3:48)
14. Scotch - Disco Band (4:28)
15. Kaoma - Lambada (3:20)
16. F. R. David - Words (3:26)
17. Baccara - Cara Mia (2:56)
18. Murray Head - One Night In Bangkok (3:52)
19. Madonna - La Isla Bonita (5:23)
20. Suzi Quatro feat. Chris Norman - Stumblin' In (3:39)

• Disc 2 [01:19:50]
01. Donna Summer - Hot Stuff (6:47)
02. Afric Simone - Hafanana (2:55)
03. Kim Wilde - Cambodia (3:55)
04. Roxette - Listen To Your Heart (5:27)
05. Lipps Inc. - Funky Town (7:43)
06. Sandra - Maria Magdalena (3:54)
07. Ricchie e Poveri - Cosa Sei (3:15)
08. Radiorama - Yeti (6:05)
09. ABBA - Dancing Queen (3:49)
10. Black - Wonderful Life (4:47)
11. Rick James - Super Freak (7:04)
12. Stephanie - Ouragan (4:37)
13. Bryan Ferry - Slave To Love (5:45)
14. C.C. Catch - Strangers By Night (5:41)
15. Bad Boys Blue - The Turbo Megamix (4:14)
16. Status Quo - In The Army Now (3:53)

• Disc 3 [01:19:59]
01. Dschinghis Khan - The Story Of Dschinghis Khan (5:52)
02. Joy - Touch By Touch (3:25)
03. Duran Duran - Save A Prayer (3:44)
04. Arabesque - Midnight Dancer (3:39)
05. Ottawan - Hands Up (Give Me Your Heart) (4:44)
06. Adriano Celentano - Confessa (5:00)
07. Bonnie Tyler - Holding Out For A Hero (I Need A Hero) (5:43)
08. Opus - Live Is Life (4:12)
09. Sade - Jezebel (5:24)
10. Mr.Zivago - Little Russian (7:35)
11. Samantha Fox - Touch Me (I Want Your Body) (3:41)
12. Europe - Carrie (4:31)
13. Silent Circle - Touch In The Night (5:33)
14. Eurythmics - Sweet Dreams (Are Made Of This) (3:35)
15. Modern Talking - No 1 Hit Medley (7:03)
16. Foreigner - I Want To Know What Love Is (6:18)

• Disc 4 [01:19:54]
01. Stars On 45 - Stars On 45 (Extended Version) (9:47)
02. Pet Shop Boys - It's A Sin (5:01)
03. Riccardo Fogli - Malinconia (4:06)
04. Alphaville - Big In Japan (4:45)
05. Billy Ocean - Get Outta My Dreams, Get Into My Car (4:46)
06. Blue System - Sorry Little Sarah (3:28)
07. Toto Cutugno - Serenata (3:46)
08. Savage - Good Bye (Extended Version) (6:41)
09. Viola Valentino - Romantici (3:53)
10. Umberto Tozzi - Ti Amo (3:51)
11. Tina Turner - The Best (5:30)
12. Survivor - Eye Of The Tiger (4:06)
13. Scorpions - Send Me An Angel (4:35)
14. Righeira - Vamos A La Playa (3:37)
15. The Alan Parson Project - Eye In The Sky (4:32)
16. Smokie - What Can I Do (3:39)
17. Natalie Cole - Miss You Like Crazy (3:52)

• Disc 5 [01:20:56]
01. Gloria Gaynor - I Will Survive (3:16)
02. Harry Nilsson - Without You (3:19)
03. Christie - Yellow River (2:45)
04. Belinda Carlisle - Circle In The Sand (3:40)
05. 10cc - I'm Not in Love (3:43)
06. Mylene Farmer - Pourvu Qu'elles Soient Douces (4:55)
07. Joe Dassin - Et Si Tu N'existais Pas (3:27)
08. Diana Ross - Upside Down (4:05)
09. Bee Gees - How Deep Is Your Love (4:00)
10. Falco - Rock Me Amadeus (3:21)
11. Gazebo - I Like Chopin (3:42)
12. Cyndi Lauper - Time After Time (4:00)
13. London Boys - Requiem (4:17)
14. The Bangles - Eternal Flame (3:53)
15. Julio Iglesias - Nostalgie (Nathalie) (3:56)
16. Matia Bazar - Vacanze Romane (4:12)
17. Silver Convention - Fly Robin Fly (3:26)
18. Village People - Y.M.C.A. (4:43)
19. Digital Emotion - Get Up, Do You Wanna Funk (5:46)
20. Eagles - Hotel California (6:30)

.log

Код:

foobar2000 1.2.8 / Dynamic Range Meter 1.1.1
log date: 2015-10-21 21:30:45

--------------------------------------------------------------------------------
Analyzed: 10cc / $uper DISCOTEKA 70-80s (1)
          ABBA / $uper DISCOTEKA 70-80s (2)
          Adriano Celentano / $uper DISCOTEKA 70-80s (3)
          Afric Simone / $uper DISCOTEKA 70-80s (4)
          Al Bano & Romina Power / $uper DISCOTEKA 70-80s (5)
          Alphaville / $uper DISCOTEKA 70-80s (6)
          Arabesque / $uper DISCOTEKA 70-80s (7)
          Baccara / $uper DISCOTEKA 70-80s (8)
          Bad Boys Blue / $uper DISCOTEKA 70-80s (9)
          Bananarama / $uper DISCOTEKA 70-80s (10)
          Bee Gees / $uper DISCOTEKA 70-80s (11)
          Belinda Carlisle / $uper DISCOTEKA 70-80s (12)
          Billy Ocean / $uper DISCOTEKA 70-80s (13)
          Black / $uper DISCOTEKA 70-80s (14)
          Blondie / $uper DISCOTEKA 70-80s (15)
          Blue System / $uper DISCOTEKA 70-80s (16)
          Boney M. / $uper DISCOTEKA 70-80s (17)
          Bonnie Tyler / $uper DISCOTEKA 70-80s (18)
          Bryan Ferry / $uper DISCOTEKA 70-80s (19)
          C.C. Catch / $uper DISCOTEKA 70-80s (20)
          Christie / $uper DISCOTEKA 70-80s (21)
          Cyndi Lauper / $uper DISCOTEKA 70-80s (22)
          Demis Roussos / $uper DISCOTEKA 70-80s (23)
          Desireless / $uper DISCOTEKA 70-80s (24)
          Diana Ross / $uper DISCOTEKA 70-80s (25)
          Digital Emotion / $uper DISCOTEKA 70-80s (26)
          Donna Summer / $uper DISCOTEKA 70-80s (27)
          Dschinghis Khan / $uper DISCOTEKA 70-80s (28)
          Duran Duran / $uper DISCOTEKA 70-80s (29)
          Eagles / $uper DISCOTEKA 70-80s (30)
          Eruption / $uper DISCOTEKA 70-80s (31)
          Europe / $uper DISCOTEKA 70-80s (32)
          Eurythmics / $uper DISCOTEKA 70-80s (33)
          F. R. David / $uper DISCOTEKA 70-80s (34)
          Falco / $uper DISCOTEKA 70-80s (35)
          Fancy / $uper DISCOTEKA 70-80s (36)
          Foreigner / $uper DISCOTEKA 70-80s (37)
          Gazebo / $uper DISCOTEKA 70-80s (38)
          Gloria Gaynor / $uper DISCOTEKA 70-80s (39)
          Harry Nilsson / $uper DISCOTEKA 70-80s (40)
          Joe Dassin / $uper DISCOTEKA 70-80s (41)
          Joy / $uper DISCOTEKA 70-80s (42)
          Julio Iglesias / $uper DISCOTEKA 70-80s (43)
          Kaoma / $uper DISCOTEKA 70-80s (44)
          Kim Wilde / $uper DISCOTEKA 70-80s (45)
          Lipps Inc. / $uper DISCOTEKA 70-80s (46)
          London Boys / $uper DISCOTEKA 70-80s (47)
          Madonna / $uper DISCOTEKA 70-80s (48)
          Matia Bazar / $uper DISCOTEKA 70-80s (49)
          Michael Jackson / $uper DISCOTEKA 70-80s (50)
          Mike Oldfield feat. Maggie Reilly / $uper DISCOTEKA 70-80s (51)
          Modern Talking / $uper DISCOTEKA 70-80s (52)
          Mr.Zivago / $uper DISCOTEKA 70-80s (53)
          Murray Head / $uper DISCOTEKA 70-80s (54)
          Mylene Farmer / $uper DISCOTEKA 70-80s (55)
          Natalie Cole / $uper DISCOTEKA 70-80s (56)
          Opus / $uper DISCOTEKA 70-80s (57)
          Ottawan / $uper DISCOTEKA 70-80s (58)
          Pet Shop Boys / $uper DISCOTEKA 70-80s (59)
          Pupo / $uper DISCOTEKA 70-80s (60)
          Radiorama / $uper DISCOTEKA 70-80s (61)
          Riccardo Fogli / $uper DISCOTEKA 70-80s (62)
          Ricchie e Poveri / $uper DISCOTEKA 70-80s (63)
          Rick James / $uper DISCOTEKA 70-80s (64)
          Righeira / $uper DISCOTEKA 70-80s (65)
          Roxette / $uper DISCOTEKA 70-80s (66)
          Sabrina / $uper DISCOTEKA 70-80s (67)
          Sade / $uper DISCOTEKA 70-80s (68)
          Samantha Fox / $uper DISCOTEKA 70-80s (69)
          Sandra / $uper DISCOTEKA 70-80s (70)
          Savage / $uper DISCOTEKA 70-80s (71)
          Scorpions / $uper DISCOTEKA 70-80s (72)
          Scotch / $uper DISCOTEKA 70-80s (73)
          Silent Circle / $uper DISCOTEKA 70-80s (74)
          Silver Convention / $uper DISCOTEKA 70-80s (75)
          Smokie / $uper DISCOTEKA 70-80s (76)
          Stars On 45 / $uper DISCOTEKA 70-80s (77)
          Status Quo / $uper DISCOTEKA 70-80s (78)
          Stephanie / $uper DISCOTEKA 70-80s (79)
          Survivor / $uper DISCOTEKA 70-80s (80)
          Suzi Quatro feat. Chris Norman / $uper DISCOTEKA 70-80s (81)
          The Alan Parson Project / $uper DISCOTEKA 70-80s (82)
          The Bangles / $uper DISCOTEKA 70-80s (83)
          Tina Turner / $uper DISCOTEKA 70-80s (84)
          Toni Esposito / $uper DISCOTEKA 70-80s (85)
          Toto Cutugno / $uper DISCOTEKA 70-80s (86)
          Umberto Tozzi / $uper DISCOTEKA 70-80s (87)
          Village People / $uper DISCOTEKA 70-80s (88)
          Viola Valentino / $uper DISCOTEKA 70-80s (89)
--------------------------------------------------------------------------------

DR         Peak         RMS     Duration Track
--------------------------------------------------------------------------------
DR8       -1.31 dB   -11.35 dB      3:43 5-05-I'm Not in Love
DR9       -1.31 dB   -11.91 dB      3:49 2-09-Dancing Queen
DR8       -1.31 dB   -11.90 dB      5:00 3-06-Confessa
DR13      -1.31 dB   -15.43 dB      2:55 2-02-Hafanana
DR7       -1.31 dB   -10.85 dB      3:26 1-05-Ci Sara
DR14      -1.31 dB   -17.46 dB      4:45 4-04-Big In Japan
DR9       -1.31 dB   -11.20 dB      3:39 3-04-Midnight Dancer
DR5       -1.31 dB    -7.57 dB      2:56 1-17-Cara Mia
DR8       -1.31 dB    -9.55 dB      4:14 2-15-The Turbo Megamix
DR7       -1.31 dB    -9.22 dB      3:48 1-13-Venus
DR12      -1.31 dB   -15.12 dB      3:40 5-04-Circle In The Sand
DR7       -1.31 dB   -10.14 dB      4:46 4-05-Get Outta My Dreams, Get Into My Car
DR9       -1.31 dB   -12.11 dB      4:47 2-10-Wonderful Life
DR9       -1.31 dB   -11.36 dB      3:25 1-11-Call Me
DR9       -1.31 dB   -11.66 dB      3:28 4-06-Sorry Little Sarah
DR7       -1.31 dB    -9.62 dB      7:32 1-01-Rasputin
DR10      -1.31 dB   -12.84 dB      5:43 3-07-Holding Out For A Hero (I Need A Hero)
DR7       -1.31 dB    -9.22 dB      5:45 2-13-Slave To Love
DR11      -1.31 dB   -13.76 dB      5:41 2-14-Strangers By Night
DR9       -1.31 dB   -12.10 dB      2:45 5-03-Yellow River
DR11      -1.31 dB   -15.40 dB      4:00 5-12-Time After Time
DR6       -1.31 dB    -8.79 dB      2:31 1-12-From Souvenirs To Souvenirs
DR7       -1.31 dB    -9.71 dB      4:19 1-06-Voyage Voyage
DR11      -1.31 dB   -13.45 dB      4:05 5-08-Upside Down
DR9       -1.31 dB   -11.56 dB      5:46 5-19-Get Up, Do You Wanna Funk
DR11      -1.31 dB   -13.26 dB      6:47 2-01-Hot Stuff
DR7       -1.31 dB    -9.42 dB      5:52 3-01-The Story Of Dschinghis Khan
DR7       -1.31 dB   -10.33 dB      3:44 3-03-Save A Prayer
DR13      -1.31 dB   -17.02 dB      6:30 5-20-Hotel California
DR8       -1.31 dB   -10.59 dB      3:33 1-07-One Way Ticket
DR12      -1.31 dB   -15.50 dB      4:31 3-12-Carrie
DR13      -1.31 dB   -15.99 dB      3:35 3-14-Sweet Dreams (Are Made Of This)
DR5       -1.31 dB    -6.99 dB      3:26 1-16-Words
DR11      -1.31 dB   -14.67 dB      3:21 5-10-Rock Me Amadeus
DR12      -1.31 dB   -15.05 dB      4:00 1-10-Flames Of Love
DR11      -1.31 dB   -16.39 dB      6:18 3-16-I Want To Know What Love Is
DR9       -1.31 dB   -12.03 dB      3:42 5-11-I Like Chopin
DR11      -1.31 dB   -13.99 dB      3:16 5-01-I Will Survive
DR12      -1.31 dB   -16.65 dB      3:19 5-02-Without You
DR10      -1.31 dB   -13.02 dB      3:27 5-07-Et Si Tu N'existais Pas
DR6       -1.31 dB    -8.41 dB      3:25 3-02-Touch By Touch
DR12      -1.31 dB   -15.93 dB      3:56 5-15-Nostalgie (Nathalie)
DR10      -1.31 dB   -12.71 dB      3:20 1-15-Lambada
DR8       -1.31 dB   -11.10 dB      3:55 2-03-Cambodia
DR13      -1.31 dB   -15.27 dB      7:43 2-05-Funky Town
DR16      -1.31 dB   -18.33 dB      4:17 5-13-Requiem
DR9       -1.31 dB   -12.70 dB      5:23 1-19-La Isla Bonita
DR8       -1.31 dB   -11.05 dB      4:12 5-16-Vacanze Romane
DR7       -1.31 dB    -9.22 dB      4:52 1-08-Billie Jean
DR11      -1.31 dB   -14.71 dB      3:34 1-09-Moonlight Shadow
DR8       -1.31 dB    -9.48 dB      7:03 3-15-No 1 Hit Medley
DR12      -1.31 dB   -15.11 dB      7:35 3-10-Little Russian
DR13      -1.31 dB   -16.15 dB      3:52 1-18-One Night In Bangkok
DR15      -1.31 dB   -18.49 dB      4:55 5-06-Pourvu Qu'elles Soient Douces
DR8       -1.31 dB   -10.41 dB      3:52 4-17-Miss You Like Crazy
DR12      -1.31 dB   -14.42 dB      4:12 3-08-Live Is Life
DR13      -1.31 dB   -16.02 dB      4:44 3-05-Hands Up (Give Me Your Heart)
DR7       -1.31 dB   -10.81 dB      5:01 4-02-It's A Sin
DR15      -1.31 dB   -17.40 dB      3:01 1-04-Burattino Telecomandato
DR10      -1.31 dB   -12.85 dB      6:05 2-08-Yeti
DR9       -1.31 dB   -12.28 dB      4:06 4-03-Malinconia
DR8       -1.31 dB   -12.52 dB      3:15 2-07-Cosa Sei
DR12      -1.31 dB   -14.04 dB      7:04 2-11-Super Freak
DR7       -1.31 dB    -9.59 dB      3:37 4-14-Vamos A La Playa
DR7       -1.31 dB    -9.93 dB      5:27 2-04-Listen To Your Heart
DR5       -1.31 dB    -7.69 dB      3:52 1-02-Boys (Sommertime Love)
DR13      -1.31 dB   -17.04 dB      5:24 3-09-Jezebel
DR8       -1.31 dB   -10.94 dB      3:41 3-11-Touch Me (I Want Your Body)
DR8       -1.31 dB   -10.68 dB      3:54 2-06-Maria Magdalena
DR8       -1.31 dB   -10.75 dB      6:41 4-08-Good Bye
DR12      -1.31 dB   -15.76 dB      4:35 4-13-Send Me An Angel
DR10      -1.31 dB   -12.43 dB      4:28 1-14-Disco Band
DR9       -1.31 dB   -11.25 dB      5:33 3-13-Touch In The Night
DR13      -1.31 dB   -15.79 dB      3:26 5-17-Fly Robin Fly
DR14      -1.31 dB   -16.89 dB      3:39 4-16-What Can I Do
DR6       -1.31 dB    -8.38 dB      9:47 4-01-Stars On 45
DR10      -1.31 dB   -13.46 dB      3:53 2-16-In The Army Now
DR8       -1.31 dB   -10.35 dB      4:37 2-12-Ouragan
DR16      -1.31 dB   -19.17 dB      4:06 4-12-Eye Of The Tiger
DR9       -1.31 dB   -12.20 dB      3:39 1-20-Stumblin' In
DR12      -1.31 dB   -15.68 dB      4:32 4-15-Eye In The Sky
DR6       -1.31 dB    -9.48 dB      4:00 5-09-How Deep Is Your Love
DR8       -1.31 dB   -11.62 dB      3:53 5-14-Eternal Flame
DR13      -1.31 dB   -16.08 dB      5:30 4-11-The Best
DR6       -1.31 dB    -8.41 dB      4:59 1-03-Kalimba De Luna
DR7       -1.31 dB   -12.35 dB      3:46 4-07-Serenata
DR10      -1.31 dB   -12.29 dB      3:51 4-10-Ti Amo
DR9       -1.31 dB   -11.22 dB      4:43 5-18-Y.M.C.A.
DR10      -1.31 dB   -12.67 dB      3:53 4-09-Romantici
--------------------------------------------------------------------------------

Number of tracks:  89
Official DR value: DR10

Samplerate:        44100 Hz
Channels:          2
Bits per sample:   16
Bitrate:           969 kbps
Codec:             FLAC
================================================================================


VA - $uper DISCOTEKA 70s-80s 5CD (2015).torrent
Трекер: Зарегистрирован

magnet ссылка

 


Скачать .torrent

20 KB

Статус: проверено (by Admin в 06-Янв-16 18:01)
Зарегистрирован: 06-Янв-16 18:01
Скачан: 163 раза
Размер: 2.64 GB | 
Поблагодарили:
Скачать (Disco, pop, dance, ballad) VA - $uper DISCOTEKA 70s-80s 5CD (2015) FLAC (tracks+.cue ), lossless торрент
 


Похожие раздачи

FOX1T69

post 03-Фев-17 08:28 (спустя 1 год 1 месяц)

станьте на раздачу

Текущее время: 02-Дек 13:28

Часовой пояс: GMT + 3



Вы не можете начинать темы
Вы не можете отвечать на сообщения
Вы не можете редактировать свои сообщения
Вы не можете удалять свои сообщения
Вы не можете голосовать в опросах
Вы не можете прикреплять файлы к сообщениям
Вы не можете скачивать файлы