Loading...
Error
 

Скачать торрент Ураган: Одиссея ветра / Ouragan, l'odyssee d'un vent (Сириль Барбанкон, Энди Биатт, Жаклин Фармер) [2015, документальный, WEB-DL 1080p] [Официальный звук]

 
Автор Сообщение

DENZEL519

post 04-Ноя-16 22:08

Ураган: Одиссея ветра / Ouragan, l'odyssee d'un vent
-

pic
Год выпуска: 2015
Страна: Франция
Жанр: документальный
Продолжительность: 01:23:20
Перевод: Дублированный [Официальный звук]
Субтитры: Нет
Режиссер: Сириль Барбанкон, Энди Биатт, Жаклин Фармер
Сценарий: Филипп Бласбан, Жаклин Фармер, Оливье Лорель
Продюсер: Жаклин Фармер, Бертран Лойер, Жан-Ив Асселин
Оператор: Сириль Барбанкон
Композитор: Catherine Graindorge, Янн Тьерсен
Монтаж: Люк Плантье, Филип Равет
В ролях: Джон Фландерс / John Flanders (Space Station Astronaut, озвучка), Кристин Самуэльсон / Kristin Samuelson (Donna), Джо Фонтана / Joe Fontana (Ben), Палома Гарсиа Мартенс / Paloma Garcia Martens (Lucy, озвучка)
pic pic pic


Описание: Путь «взбунтовавшегося ветра» от Африки до берегов Америки на протяжении 1000 съемочных дней отслеживала команда отважных кинематографистов и представителей NASA, находясь в самом сердце стихии. Ценой их невероятных усилий был создан уникальный экранный документ и одновременно завораживающее зрелище.


Качество: WEB-DL 1080p
Формат: MKV
Видео кодек: AVC
Аудио кодеk: AC3
Видео: 1920x800 (2.40:1), 25.000 fps, AVC, 5 055 Kbps
Аудио: Аудио #1: AC3, 384 Kbps, 48.0 KHz, 2 ch [Rus]

pic
Рейтинг

МедиаИнфо

Код:

General
Unique ID                                : 216948308329476350251835204310894499877 (0xA336B96E51BF5D1280A1610B4B89D825)
Complete name                            : Ouragan.2015.D.WEB-DL.1080p.GreenРай Studio.mkv
Format                                   : Matroska
Format version                           : Version 4 / Version 2
File size                                : 3.14 GiB
Duration                                 : 1h 23mn
Overall bit rate                         : 5 389 Kbps
Encoded date                             : UTC 2016-10-14 18:41:37
Writing application                      : mkvmerge v8.3.0 ('Over the Horizon') 64bit
Writing library                          : libebml v1.3.1 + libmatroska v1.4.2
DURATION                                 : 01:23:20.512000000
NUMBER_OF_FRAMES                         : 156266
NUMBER_OF_BYTES                          : 240024576
_STATISTICS_WRITING_APP                  : mkvmerge v8.3.0 ('Over the Horizon') 64bit
_STATISTICS_WRITING_DATE_UTC             : 2016-10-14 18:41:37
_STATISTICS_TAGS                         : BPS DURATION NUMBER_OF_FRAMES NUMBER_OF_BYTES

Video
ID                                       : 1
Format                                   : AVC
Format/Info                              : Advanced Video Codec
Format profile                           : [email protected]
Format settings, CABAC                   : Yes
Format settings, ReFrames                : 4 frames
Codec ID                                 : V_MPEG4/ISO/AVC
Duration                                 : 1h 23mn
Bit rate                                 : 5 055 Kbps
Width                                    : 1 920 pixels
Height                                   : 800 pixels
Display aspect ratio                     : 2.40:1
Frame rate mode                          : Constant
Frame rate                               : 25.000 fps
Color space                              : YUV
Chroma subsampling                       : 4:2:0
Bit depth                                : 8 bits
Scan type                                : Progressive
Bits/(Pixel*Frame)                       : 0.132
Stream size                              : 2.85 GiB (91%)
Writing library                          : x264 core 146 r2538 121396c
Encoding settings                        : cabac=1 / ref=3 / deblock=1:-1:-1 / analyse=0x3:0x133 / me=umh / subme=7 / psy=1 / psy_rd=1.00:0.15 / mixed_ref=1 / me_range=16 / chroma_me=1 / trellis=1 / 8x8dct=1 / cqm=0 / deadzone=21,11 / fast_pskip=1 / chroma_qp_offset=-3 / threads=22 / lookahead_threads=3 / sliced_threads=0 / nr=0 / decimate=1 / interlaced=0 / bluray_compat=0 / constrained_intra=0 / bframes=3 / b_pyramid=2 / b_adapt=2 / b_bias=0 / direct=3 / weightb=1 / open_gop=0 / weightp=2 / keyint=250 / keyint_min=23 / scenecut=40 / intra_refresh=0 / rc_lookahead=50 / rc=2pass / mbtree=1 / bitrate=5055 / ratetol=1.0 / qcomp=0.60 / qpmin=0 / qpmax=69 / qpstep=4 / cplxblur=20.0 / qblur=0.5 / ip_ratio=1.40 / aq=1:1.00
Default                                  : Yes
Forced                                   : No

Audio
ID                                       : 2
Format                                   : AC-3
Format/Info                              : Audio Coding 3
Mode extension                           : CM (complete main)
Format settings, Endianness              : Big
Codec ID                                 : A_AC3
Duration                                 : 1h 23mn
Bit rate mode                            : Constant
Bit rate                                 : 384 Kbps
Channel(s)                               : 2 channels
Channel positions                        : Front: L R
Sampling rate                            : 48.0 KHz
Bit depth                                : 16 bits
Compression mode                         : Lossy
Stream size                              : 229 MiB (7%)
Default                                  : Yes
Forced                                   : No

Доп. информация
Сборы в России: $7 997
Зрители: Россия 2.3 тыс.
Премьера (мир): 2 октября 2015
Премьера (РФ): 25 августа 2016

Скриншоты


Время раздачи: 24/7 (до появления первых 3-5 скачавших)

Ouragan.2015.D.WEB-DL.1080p.torrent
Трекер: Зарегистрирован

magnet ссылка

 


Скачать .torrent

16 KB

Статус: проверено (by DENZEL519 в 04-Ноя-16 22:08)
Зарегистрирован: 04-Ноя-16 22:08
Скачан: 312 раз
Размер: 3.14 GB | 
Поблагодарили:
Скачать Ураган: Одиссея ветра / Ouragan, l'odyssee d'un vent (Сириль Барбанкон, Энди Биатт, Жаклин Фармер) [2015, документальный, WEB-DL 1080p] [Официальный звук] торрент
 


Похожие раздачи

valford

post 07-Ноя-16 13:05 (спустя 2 дня 14 часов)

рекламы напихано, смотреть нельзя

post 05-Фев-17 07:53 (спустя 2 месяца 27 дней)

Топик был перенесен из форума WEB-DL / WEB-DLRip в форум Научно-популярные и познавательные фильмы


Snowden
 

Текущее время: 21-Сен 01:42

Часовой пояс: GMT + 3



Вы не можете начинать темы
Вы не можете отвечать на сообщения
Вы не можете редактировать свои сообщения
Вы не можете удалять свои сообщения
Вы не можете голосовать в опросах
Вы не можете прикреплять файлы к сообщениям
Вы не можете скачивать файлы