Loading...
Error
 

Скачать торрент Мастер обработки в DXO Optics Pro. [Александр Ипполитов] (2015, Графика, работа с программами, PCRec) R.G. Мастер-Класс

 
Автор Сообщение

Music Listener

post 11-Авг-15 19:56

Мастер обработки в DXO Optics Pro


pic
  • Год выпуска: 2015
  • Страна: Россия
  • Тематика: Графика, работа с программами
  • Тип материала: Видеокурс
  • Продолжительность: ~2 часа
  • Авторы: Александр Ипполитов
  • Язык: Русский

    Описание:
    Как качественно обрабатывать фотографии за считанные минуты без Photoshop и Lightroom? Вам на помощ придет альтернативный редактор DXO Optics Pro, благодаря которому можно быстро и качественно производить коррекцию фотоснимков, в среднем обработка одного снимка занимает 1-2 минуты. А данный курс вас научит правильно работать с редактором DXO Optics Pro в самые кратчайшие сроки.

    Многие задаются вопросами в чем лучше вести обработку фотографий. И у всех на устах только два основных редактора от компании Adobe это Фотошоп и Лайтрум. Это отличные редакторы, но как правило справится с первым новичку не под силу, да и обработка в Фотошоп занимает много времени. А что делать когда нужно обработать много фотографий, а времени нет? Правильно, на помощь приходит Лайтрум. Но единственный ли это фоторедактор хорошего уровня или компания Adobe является абсолютным монополистом в обработке фотографий?

    НЕТ, есть и другие отличные редакторы, которые ничуть не хуже справляются со своими задачами, а в некоторых пунктах и далеко впереди Лайтрум. И главный из них это DXO Optics Pro, созданный немецкой лабораторией DXO Labs.
    Этот редактор позволяет за считанные минуты качественно обрабатывать ваши фотографии, а возможность пакетной обработки позволяет за раз обработать большой объем фотографий, что просто колоссально экономит ваше время!
    Быстро обучиться обработке в замечательном редакторе DXO Optics Pro вам поможет новый видеокурс «Мастер обработки в DXO Optics Pro»

    Для кого этот курс:

    Этот видеокурс подойдет для всех кто хочет научиться качественно и быстро обрабатывать свои фото не прибегая к фоторедакторам Photoshop и Lightroom. Для прохождения курса достаточно самых начальных знаний в фотографии.
    Редактор DXO Optics Pro, можно использовать как абсолютно самостоятельный инструмент цветотональной коррекции фотографий. Но при необходимости его можно использовать и в связке с теми же редакторами Photoshop и Lightroom.

    Бонусы:

    Видеокурс по использованию дополнительных плагинов для DXO Optics Pro. DXO ViewPoint 2 и DXO Filmpack 5. В этом бонусном курсе вы научитесь пользоваться этими двумя полезнейшими плагинами.

    DXO ViewPoint 2 - на сегодня это лучший инструмент по исправлению геометрических искажений, ни один фоторедактор пока не способен исправлять дисторсию, лучше этого плагина.

    DXO Filmpack 5 - Полноценное приложение для улучшения ваших фотографий, благодаря эффектам из данного плагина, вы сможете выделять главный объект на фото малой глубиной резкости, эта функция очень полезна если вы не имеете дорогого светосильного объектива. Так же данный плагин способен наложить на ваше фото множество красивых эффектов за считанные секунды над которыми в редакторе Photoshop ушли бы часы работы.


  • Качество: PCRec
  • Формат: HTML, MP4
  • Видео кодек: AVC
  • Аудио кодек: AAC
  • Видео: avc1, 1280x720, 15.000 fps, 576 Kbps, 10-30 fps
  • Аудио: AAC, 44,1 Hz, 2ch, 192kbps



MediaInfo

Код:

Общее
Полное имя                               : D:\Мастер-Класс\Мастер обработки в DXO Optics Pro (2015)\tuts\01\01.mp4
Формат                                   : MPEG-4
Профиль формата                          : Base Media / Version 2
Идентификатор кодека                     : mp42
Размер файла                             : 29,9 Мбайт
Продолжительность                        : 5 м. 48 с.
Режим общего битрейта                    : Переменный
Общий поток                              : 719 Кбит/сек
Название фильма                          : скачка
Дата кодирования                         : UTC 2015-05-24 07:55:19
Дата пометки                             : UTC 2015-05-24 07:55:19

Видео
Идентификатор                            : 1
Формат                                   : AVC
Формат/Информация                        : Advanced Video Codec
Профиль формата                          : [email protected]
Параметр CABAC формата                   : Нет
Параметр ReFrames формата                : 3 кадра
Параметр GOP формата                     : M=1, N=75
Идентификатор кодека                     : avc1
Идентификатор кодека/Информация          : Advanced Video Coding
Продолжительность                        : 5 м. 48 с.
Битрейт                                  : 528 Кбит/сек
Ширина                                   : 1280 пикселей
Высота                                   : 720 пикселей
Соотношение сторон                       : 16:9
Режим частоты кадров                     : Постоянный
Частота кадров                           : 15,000 кадров/сек
Цветовое пространство                    : YUV
Субдискретизация насыщенности            : 4:2:0
Битовая глубина                          : 8 бит
Тип развёртки                            : Прогрессивная
Бит/(Пиксели*Кадры)                      : 0.038
Размер потока                            : 21,9 Мбайт (73%)
Язык                                     : English
Дата кодирования                         : UTC 2015-05-24 07:55:19
Дата пометки                             : UTC 2015-05-24 07:55:19
Цветовой диапазон                        : Limited

Аудио
Идентификатор                            : 2
Формат                                   : AAC
Формат/Информация                        : Advanced Audio Codec
Профиль формата                          : LC
Идентификатор кодека                     : 40
Продолжительность                        : 5 м. 48 с.
Продолжительность оригинала              : 5 м. 48 с.
Вид битрейта                             : Переменный
Битрейт                                  : 192 Кбит/сек
Максимальный битрейт                     : 242 Кбит/сек
Каналы                                   : 2 канала
Расположение каналов                     : Front: L R
Частота                                  : 44,1 КГц
Метод сжатия                             : С потерями
Размер потока                            : 7,88 Мбайт (26%)
Размер потока оригинала                  : 7,88 Мбайт (26%)
Язык                                     : English
Дата кодирования                         : UTC 2015-05-24 07:55:19
Дата пометки                             : UTC 2015-05-24 07:55:19
Видео
Скриншоты
     
pic
[rustorka.com]Мастер обработки в DXO Optics Pro (2015).torrent
Трекер: Зарегистрирован

magnet ссылка

 


Скачать .torrent

58 KB

Статус: проверено (by Арт33 в 11-Авг-15 20:07)
Зарегистрирован: 11-Авг-15 19:56
Скачан: 3 раза
Размер: 1.79 GB | 
Поблагодарили:
Скачать Мастер обработки в DXO Optics Pro. [Александр Ипполитов] (2015, Графика, работа с программами, PCRec) R.G. Мастер-Класс торрент
 


Похожие раздачи

dirtzond

post 20-Апр-17 22:16 (спустя 1 год 8 месяцев)

Вернитесь на раздачу кто нибудь!

Текущее время: 19-Июн 22:39

Часовой пояс: GMT + 3



Вы не можете начинать темы
Вы не можете отвечать на сообщения
Вы не можете редактировать свои сообщения
Вы не можете удалять свои сообщения
Вы не можете голосовать в опросах
Вы не можете прикреплять файлы к сообщениям
Вы не можете скачивать файлы