Loading...
Error
 

Скачать торрент Шарлотта / Charlotte (Асай Ёсиюки) [TV] [13 из 13] [RUS(int), без хардсаба] [2015, приключения, HDTVRip][720p] (AniDUB)

 
Автор Сообщение

Vickers

post 16-Июл-15 12:22

pic
pic
Шарлотта / Charlotte

Год выпуска: 2015
Страна: Япония
Жанр: приключения
Продолжительность: 13 эп. по 25 мин.
Перевод: BalFor, Oriko (Озвучивание), Леодрим (работа над переводом)
Субтитры: отсутствуют
Студия: pic
Режиссёр: Асай Ёсиюки
Описание: Действия истории разворачиваются в альтернативной вселенной. В ней у определенного количества подростков в возрасте 12-16 лет появляются разнообразные паранормальные способности. Одним из таких подростков является парень по имени Ю Отосака. Несмотря на наличие сверхспособностей, парень живет обычной школьной жизнью и свои «таланты» на показ не выставляет, пока в один из прекрасных дней не встречает девушку по имени Нао Томори.
Качество: HDTVRip
Формат: MP4
Видео: x264, 1280x720, ~ 1456 kbps, 23.976 fps
Аудио: RUS - AAC, 163 kbps, 48 kHz, 2ch.
MediaInfo

Код:

Общее
Полное имя                               : D:\Anime\Раздачи\Charlotte [HDTVRip] [720p] (AniDUB)\Charlotte [HDTVRip] [720p] [01] [BalFor & Oriko].mp4
Формат                                   : MPEG-4
Профиль формата                          : Base Media
Идентификатор кодека                     : isom
Размер файла                             : 279 Мбайт
Продолжительность                        : 24 м.
Режим общего битрейта                    : Переменный
Общий поток                              : 1624 Кбит/сек
Дата кодирования                         : UTC 2015-07-05 22:55:22
Дата пометки                             : UTC 2015-07-05 22:55:22
Программа кодирования                    : Yamb 2.1.0.0 [http://yamb.unite-video.com]

Видео
Идентификатор                            : 1
Формат                                   : AVC
Формат/Информация                        : Advanced Video Codec
Профиль формата                          : [email protected]
Параметр CABAC формата                   : Да
Параметр ReFrames формата                : 4 кадра
Идентификатор кодека                     : avc1
Идентификатор кодека/Информация          : Advanced Video Coding
Продолжительность                        : 24 м.
Битрейт                                  : 1456 Кбит/сек
Максимальный битрейт                     : 8945 Кбит/сек
Ширина                                   : 1280 пикселей
Высота                                   : 720 пикселей
Соотношение сторон                       : 16:9
Режим частоты кадров                     : Переменный
Частота кадров                           : 23,976 кадра/сек
Минимальная частота кадров               : 12,821 кадров/сек
Максимальная частота кадров              : 24,390 кадра/сек
Цветовое пространство                    : YUV
Субдискретизация насыщенности            : 4:2:0
Битовая глубина                          : 8 бит
Тип развёртки                            : Прогрессивная
Бит/(Пиксели*Кадры)                      : 0.066
Размер потока                            : 250 Мбайт (90%)
Библиотека кодирования                   : x264 core 146 r2538 121396c
Настройки программы                      : cabac=1 / ref=3 / deblock=1:0:0 / analyse=0x1:0x111 / me=hex / subme=7 / psy=1 / psy_rd=1.00:0.00 / mixed_ref=1 / me_range=16 / chroma_me=1 / trellis=1 / 8x8dct=0 / cqm=0 / deadzone=21,11 / fast_pskip=1 / chroma_qp_offset=-2 / threads=12 / lookahead_threads=2 / sliced_threads=0 / nr=0 / decimate=1 / interlaced=0 / bluray_compat=0 / constrained_intra=0 / bframes=3 / b_pyramid=2 / b_adapt=1 / b_bias=0 / direct=1 / weightb=1 / open_gop=0 / weightp=2 / keyint=240 / keyint_min=1 / scenecut=40 / intra_refresh=0 / rc_lookahead=40 / rc=crf / mbtree=1 / crf=20.0 / qcomp=0.60 / qpmin=0 / qpmax=69 / qpstep=4 / ip_ratio=1.40 / aq=1:1.50
Дата кодирования                         : UTC 2015-07-04 15:34:22
Дата пометки                             : UTC 2015-07-05 22:56:01
Основные цвета                           : BT.709
Характеристики трансфера                 : BT.709
Коэффициенты матрицы                     : BT.709
colour_range                             : Limited

Аудио
Идентификатор                            : 2
Формат                                   : AAC
Формат/Информация                        : Advanced Audio Codec
Профиль формата                          : LC
Идентификатор кодека                     : 40
Продолжительность                        : 23 м.
Вид битрейта                             : Переменный
Битрейт                                  : 163 Кбит/сек
Максимальный битрейт                     : 242 Кбит/сек
Каналы                                   : 2 канала
Расположение каналов                     : Front: L R
Частота                                  : 48,0 КГц
Метод сжатия                             : С потерями
Размер потока                            : 27,9 Мбайт (10%)
Дата кодирования                         : UTC 2015-07-05 22:55:52
Дата пометки                             : UTC 2015-07-05 22:56:01
Скриншоты
Charlotte [HDTVRip] [720p] (AniDUB).torrent
Трекер: Зарегистрирован

magnet ссылка

 


Скачать .torrent

12 KB

Статус: проверено (by BRinkaaa в 09-Окт-15 13:53)
Зарегистрирован: 09-Окт-15 13:21
Скачан: 26 раз
Размер: 4.23 GB | 
Поблагодарили:
Скачать Шарлотта / Charlotte (Асай Ёсиюки) [TV] [13 из 13] [RUS(int), без хардсаба] [2015, приключения, HDTVRip][720p] (AniDUB) торрент
 


Похожие раздачи

Vickers

post 27-Июл-15 11:30 (спустя 10 дней)

27.07.2015 - Торрент обновлён! Добавлена третья серия.

Vickers

post 22-Авг-15 12:52 (спустя 26 дней)

22.08.2015 - Торрент обновлён! Добавлены 4-7 серии.

Vickers

post 27-Авг-15 16:47 (спустя 5 дней)

27.08.2015 - Торрент обновлён! Добавлена восьмая серия.

Vickers

post 12-Сен-15 17:21 (спустя 16 дней)

12.09.2015 - Торрент обновлён! Добавлены 9-10 серии.

Vickers

post 18-Сен-15 17:08 (спустя 5 дней)

18.09.2015 - Торрент обновлён! Добавлена одиннадцатая серия.

Vickers

post 09-Окт-15 13:22 (спустя 20 дней)

09.10.2015 - Торрент обновлён! Добавлены 11-13 серии. Релиз завершен!

post 10-Май-17 16:34 (спустя 1 год 7 месяцев)

Топик был перенесен из форума Новинки в форум HDTVRip / HDTV 720 / 1080


Snowden
 

Текущее время: 17-Окт 08:13

Часовой пояс: GMT + 3



Вы не можете начинать темы
Вы не можете отвечать на сообщения
Вы не можете редактировать свои сообщения
Вы не можете удалять свои сообщения
Вы не можете голосовать в опросах
Вы не можете прикреплять файлы к сообщениям
Вы не можете скачивать файлы