Loading...
Error
 

Скачать торрент Бездомный бог: Арагото / Noragami Aragoto (Тамура Котаро) [TV] [13 из 13] [JAP+SUB] [2015, приключения, сверхъестественное, сёнен, HDTVRip][720p]

 
Автор Сообщение

Vickers

post 03-Окт-15 16:19

pic
pic
Бездомный бог: Арагото / Noragami Aragoto

Год выпуска: 2015
Страна: Япония
Жанр: приключения, сверхъестественное, сёнен
Продолжительность: 13 эп. по 24 мин.
Перевод:
  • Русские субтитры: YakuSub Studio
    Yukio_Sempai [Переводчик/Перевод песен]
    Harushechka, SapogaN [Редакторы]
    Helge [Оформление]

Студия: pic
Режиссёр: Тамура Котаро
Описание: Во втором сезоне Noragami основной акцент делается на Бишамон, богине войны. У неё много шинки, поскольку она не способна отказаться от духов, которые подверглись нападению Аякаши. Бишамон стоит во главе большой группы шинки, что регулярно создает проблемы, так как она не может уследить за всеми должным образом, особенно, когда кто-то из них заболел или испытывает боль. Богиня имеет сильную ненависть к Ято, их связывает темное прошлое. Как ужасные события, происшедшие сто лет назад, в сочетании с текущими событиями, повлияют на Ято и Юкине?
Качество: HDTVRip
Формат: MP4
Видео: x264, 1280x720, ~ 2038 kbps, 23.976 fps
Автор рипа: Ohys-Raws [1-3], Leopard-Raws [4-13]
Аудио: JAP - AAC, 210 kbps, 48 kHz, 2ch.
MediaInfo

Код:

Общее
Полное имя                               : D:\Anime\Раздачи\Noragami Aragoto [HDTVRip] [720p]\[Ohys-Raws] Noragami Aragoto [01].mp4
Формат                                   : MPEG-4
Профиль формата                          : Base Media
Идентификатор кодека                     : isom
Размер файла                             : 395 Мбайт
Продолжительность                        : 24 м.
Режим общего битрейта                    : Переменный
Общий поток                              : 2252 Кбит/сек
Дата кодирования                         : UTC 2015-10-02 16:54:29
Дата пометки                             : UTC 2015-10-02 16:54:29

Видео
Идентификатор                            : 1
Формат                                   : AVC
Формат/Информация                        : Advanced Video Codec
Профиль формата                          : [email protected]
Параметр CABAC формата                   : Да
Параметр ReFrames формата                : 4 кадра
Идентификатор кодека                     : avc1
Идентификатор кодека/Информация          : Advanced Video Coding
Продолжительность                        : 24 м.
Битрейт                                  : 2038 Кбит/сек
Максимальный битрейт                     : 11,2 Мбит/сек
Ширина                                   : 1280 пикселей
Высота                                   : 720 пикселей
Соотношение сторон                       : 16:9
Режим частоты кадров                     : Постоянный
Частота кадров                           : 23,976 кадра/сек
Цветовое пространство                    : YUV
Субдискретизация насыщенности            : 4:2:0
Битовая глубина                          : 8 бит
Тип развёртки                            : Прогрессивная
Бит/(Пиксели*Кадры)                      : 0.092
Размер потока                            : 357 Мбайт (90%)
Библиотека кодирования                   : x264 core 148 r2597 e86f3a1
Настройки программы                      : cabac=1 / ref=3 / deblock=1:0:0 / analyse=0x1:0x111 / me=hex / subme=7 / psy=1 / psy_rd=1.00:0.00 / mixed_ref=1 / me_range=16 / chroma_me=1 / trellis=1 / 8x8dct=0 / cqm=0 / deadzone=21,11 / fast_pskip=1 / chroma_qp_offset=-2 / threads=12 / lookahead_threads=2 / sliced_threads=0 / nr=0 / decimate=1 / interlaced=0 / bluray_compat=0 / constrained_intra=0 / bframes=3 / b_pyramid=2 / b_adapt=1 / b_bias=0 / direct=1 / weightb=1 / open_gop=0 / weightp=2 / keyint=240 / keyint_min=1 / scenecut=40 / intra_refresh=0 / rc_lookahead=40 / rc=crf / mbtree=1 / crf=20.0 / qcomp=0.60 / qpmin=0 / qpmax=69 / qpstep=4 / ip_ratio=1.40 / aq=1:1.50
Дата кодирования                         : UTC 2015-10-02 16:54:29
Дата пометки                             : UTC 2015-10-02 16:54:31
Цветовой диапазон                        : Limited
Основные цвета                           : BT.709
Характеристики трансфера                 : BT.709
Коэффициенты матрицы                     : BT.709

Аудио
Идентификатор                            : 2
Формат                                   : AAC
Формат/Информация                        : Advanced Audio Codec
Профиль формата                          : LC
Идентификатор кодека                     : 40
Продолжительность                        : 24 м.
Вид битрейта                             : Переменный
Битрейт                                  : 210 Кбит/сек
Максимальный битрейт                     : 256 Кбит/сек
Каналы                                   : 2 канала
Расположение каналов                     : Front: L R
Частота                                  : 48,0 КГц
Метод сжатия                             : С потерями
Размер потока                            : 36,9 Мбайт (9%)
Язык                                     : Japanese
Дата кодирования                         : UTC 2015-10-02 16:44:31
Дата пометки                             : UTC 2015-10-02 16:54:31
Скриншоты
Noragami Aragoto (HDTVRip) (720p).torrent
Трекер: Зарегистрирован

magnet ссылка

 


Скачать .torrent

13 KB

Статус: проверено (by Арт33 в 26-Дек-15 21:41)
Зарегистрирован: 26-Дек-15 21:29
Скачан: 97 раз
Размер: 4.57 GB | 
Поблагодарили:
Скачать Бездомный бог: Арагото / Noragami Aragoto (Тамура Котаро) [TV] [13 из 13] [JAP+SUB] [2015, приключения, сверхъестественное, сёнен, HDTVRip][720p] торрент
 


Похожие раздачи

agnostik999

post 03-Окт-15 19:13 (спустя 2 часа 53 минуты)

Интересно зачем субтитры в отдельную папку класть?

Vickers

post 03-Окт-15 21:40 (спустя 2 часа 27 минут)

Просьба перекачать торрент! (По ошибке была залита серия без редактуры)

artisho

post 03-Окт-15 21:47 (спустя 6 минут)

Наконец-то 2 сезон :up:

Vickers

post 11-Окт-15 21:18 (спустя 7 дней)

11.10.2015 - Торрент обновлён! Добавлена вторая серия. Субтитры заменены на YakuSub Studio.

Vickers

post 17-Окт-15 21:02 (спустя 5 дней)

17.10.2015 - Торрент обновлён! Добавлена третья серия.

Vickers

post 24-Окт-15 14:07 (спустя 6 дней)

24.10.2015 - Торрент обновлён! Добавлена четвертая серия.

Vickers

post 01-Ноя-15 14:05 (спустя 7 дней)

01.11.2015 - Торрент обновлён! Добавлена пятая серия.

Vickers

post 07-Ноя-15 18:22 (спустя 6 дней)

07.11.2015 - Торрент обновлён! Добавлена шестая серия.

Vickers

post 22-Ноя-15 13:28 (спустя 14 дней)

22.11.2015 - Торрент обновлён! Добавлены 7-8 серии.

Vickers

post 08-Дек-15 20:41 (спустя 16 дней)

08.12.2015 - Торрент обновлён! Добавлены 9-10 серии.

Vickers

post 13-Дек-15 13:05 (спустя 4 дня)

13.12.2015 - Торрент обновлён! Добавлена одиннадцатая серия.

Vickers

post 26-Дек-15 21:30 (спустя 13 дней)

26.12.2015 - Торрент обновлён! Добавлены 12-13 серии.
Релиз завершен.

post 10-Май-17 16:36 (спустя 1 год 4 месяца)

Топик был перенесен из форума Новинки в форум HDTVRip / HDTV 720 / 1080


Snowden
 

Текущее время: 17-Окт 08:13

Часовой пояс: GMT + 3



Вы не можете начинать темы
Вы не можете отвечать на сообщения
Вы не можете редактировать свои сообщения
Вы не можете удалять свои сообщения
Вы не можете голосовать в опросах
Вы не можете прикреплять файлы к сообщениям
Вы не можете скачивать файлы