Loading...
Error
 

Скачать торрент Скитальцы:Специальное издание | Drifters:Special Edition [Судзуки Кэнъити] [OVA 1-1 из 1] [Jap+Russubs] [2016 г., сэйнэн, исторический, комедия, фэнтези, HDTVRip 480p]

 
Автор Сообщение

xxxGabrielxxx

post 02-Июл-16 22:38

pic

Скитальцы:Специальное издание | Drifters:Special Edition | ドリフターズ

pic
Общая информация
Год выпуска: 2016
Страна: Япония pic
Жанр: сэйнэн, исторический, комедия, фэнтези,
Тип: OVA [1-1 из 1]
Продолжительность: 41 минута
Перевод: отсутствует
Язык: Японский pic
Субтитры: Русские pic
  • внешние ASS, отключаемые
  • Перевод выполнен командой [FuwaSubs]
  • Перевод: Onami, Nyashl, Редактура:Onami, Nyashl, таймкод: Nippa, оформление: Nippa

Студия: pic
Автор оригинала: Хирано Кота | Hirano Kouta
Режиссёр: Судзуки Кэнъити | Suzuki Kenichi

Рейтинги
pic pic pic
Описание
Специальная версия первого и второго эпизодов ТВ-сериала. Бонус к эксклюзивному ограниченному изданию пятого тома манги.
Технические особенности релиза
Качество: HDTVRip
Формат: MKV
Видео: кодек видео-AVC, разрешение видео-[email protected]х480, битрейт -1015 Кбит/сек, кадров в секунду-23,976 кадра/сек
Аудио:Язык дорожки - pic JАP, кодек-AAC, частота-48,0 КГц, кол-во каналов-2 канала, битрейт-160 Кбит/сек

MediaInfo [FuwaSubs]

Код:

Общее
Уникальный идентификатор                 : 248612463785542842055084916594861722044 (0xBB0904D3B28ABCD5A0F39C88A700C9BC)
Полное имя                               : E:\Аниме\Скитальцы OVA\[FuwaSubs] Drifters Special Edition OVA.mkv
Формат                                   : Matroska
Версия формата                           : Version 4 / Version 2
Размер файла                             : 484 Мбайт
Продолжительность                        : 41 м.
Общий поток                              : 1627 Кбит/сек
Дата кодирования                         : UTC 2016-06-30 18:43:44
Программа кодирования                    : mkvmerge v8.1.0 ('Psychedelic Postcard') 32bit
Библиотека кодирования                   : libebml v1.3.1 + libmatroska v1.4.2

Видео
Идентификатор                            : 1
Формат                                   : AVC
Формат/Информация                        : Advanced Video Codec
Профиль формата                          : [email protected]
Параметр CABAC формата                   : Да
Параметр ReFrames формата                : 4 кадра
Идентификатор кодека                     : V_MPEG4/ISO/AVC
Продолжительность                        : 41 м.
Битрейт                                  : 1015 Кбит/сек
Ширина                                   : 720 пикселей
Высота                                   : 480 пикселей
Соотношение сторон                       : 16:9
Режим частоты кадров                     : Переменный
Частота кадров                           : 23,976 кадра/сек
Цветовое пространство                    : YUV
Субдискретизация насыщенности            : 4:2:0
Битовая глубина                          : 8 бит
Тип развёртки                            : Прогрессивная
Бит/(Пиксели*Кадры)                      : 0.122
Размер потока                            : 302 Мбайт (62%)
Библиотека кодирования                   : x264 core 142 r2479 dd79a61
Настройки программы                      : cabac=1 / ref=3 / deblock=1:0:0 / analyse=0x3:0x113 / me=hex / subme=7 / psy=1 / psy_rd=1.00:0.00 / mixed_ref=1 / me_range=16 / chroma_me=1 / trellis=1 / 8x8dct=1 / cqm=0 / deadzone=21,11 / fast_pskip=1 / chroma_qp_offset=-2 / threads=12 / lookahead_threads=2 / sliced_threads=0 / nr=0 / decimate=1 / interlaced=0 / bluray_compat=0 / constrained_intra=0 / bframes=3 / b_pyramid=2 / b_adapt=1 / b_bias=0 / direct=1 / weightb=1 / open_gop=0 / weightp=2 / keyint=240 / keyint_min=24 / scenecut=40 / intra_refresh=0 / rc_lookahead=40 / rc=crf / mbtree=1 / crf=20.0 / qcomp=0.60 / qpmin=0 / qpmax=69 / qpstep=4 / vbv_maxrate=62500 / vbv_bufsize=78125 / crf_max=0.0 / nal_hrd=none / filler=0 / ip_ratio=1.40 / aq=1:1.00
Default                                  : Да
Forced                                   : Нет
Цветовой диапазон                        : Limited
Основные цвета                           : BT.601 NTSC
Характеристики трансфера                 : BT.709
Коэффициенты матрицы                     : BT.601

Аудио #1
Идентификатор                            : 2
Формат                                   : AAC
Формат/Информация                        : Advanced Audio Codec
Профиль формата                          : LC
Идентификатор кодека                     : A_AAC
Продолжительность                        : 41 м.
Битрейт                                  : 160 Кбит/сек
Каналы                                   : 2 канала
Расположение каналов                     : Front: L R
Частота                                  : 48,0 КГц
Частота кадров                           : 46,875 кадров/сек (1024 spf)
Метод сжатия                             : С потерями
Размер потока                            : 47,7 Мбайт (10%)
Язык                                     : Japanese
Default                                  : Да
Forced                                   : Нет

Аудио #2
Идентификатор                            : 3
Формат                                   : AC-3
Формат/Информация                        : Audio Coding 3
Расширение режима                        : CM (complete main)
Параметр Endianness формата              : Big
Идентификатор кодека                     : A_AC3
Продолжительность                        : 41 м.
Вид битрейта                             : Постоянный
Битрейт                                  : 448 Кбит/сек
Каналы                                   : 2 канала
Расположение каналов                     : Front: L R
Частота                                  : 48,0 КГц
Частота кадров                           : 31,250 кадров/сек (1536 spf)
Метод сжатия                             : С потерями
Размер потока                            : 133 Мбайт (28%)
Язык                                     : Japanese
Default                                  : Нет
Forced                                   : Нет

Текст
Идентификатор                            : 4
Формат                                   : ASS
Идентификатор кодека                     : S_TEXT/ASS
Идентификатор кодека/Информация          : Advanced Sub Station Alpha
Продолжительность                        : 38 м.
Битрейт                                  : 175 бит/сек
Count of elements                        : 623
Метод сжатия                             : Без потерь
Размер потока                            : 49,2 Кбайт (0%)
Default                                  : Да
Forced                                   : Нет

Меню
00:00:00.000                             : en:Chapter 1
00:00:19.519                             : en:Chapter 2
00:19:24.830                             : en:Chapter 3
00:38:23.835                             : en:Chapter 4

Скриншоты
pic

pic

pic

pic

pic

pic
Трейлер


pic

pic
OVA 1-1.torrent
Трекер: Зарегистрирован

magnet ссылка

 


Скачать .torrent

19 KB

Статус: проверено (by Арт33 в 03-Июл-16 18:03)
Зарегистрирован: 02-Июл-16 22:38
Скачан: 104 раза
Размер: 484 MB | 
Поблагодарили:
Скачать Скитальцы:Специальное издание | Drifters:Special Edition [Судзуки Кэнъити] [OVA 1-1 из 1] [Jap+Russubs] [2016 г., сэйнэн, исторический, комедия, фэнтези, HDTVRip 480p] торрент
 


Похожие раздачи

человекь

post 03-Июл-16 00:55 (спустя 2 часа 17 минут)

Манга ваще улётная.

Alpha_sk

post 03-Июл-16 10:49 (спустя 9 часов)

А че там с экранизацией кто подскажет? Овой все закончится, или это так, затравка ?

MIKSturKO

post 03-Июл-16 10:56 (спустя 7 минут)

Ц Alpha_sk писал(а):

А че там с экранизацией кто подскажет? Овой все закончится, или это так, затравка ?
В октябре ТВшка

post 10-Май-17 16:37 (спустя 10 месяцев)

Топик был перенесен из форума Новинки в форум HDTVRip / HDTV 720 / 1080


Snowden
 

Текущее время: 19-Ноя 05:08

Часовой пояс: GMT + 3



Вы не можете начинать темы
Вы не можете отвечать на сообщения
Вы не можете редактировать свои сообщения
Вы не можете удалять свои сообщения
Вы не можете голосовать в опросах
Вы не можете прикреплять файлы к сообщениям
Вы не можете скачивать файлы