Loading...
Error
 

Скачать торрент Ди Грей-мен: Святые | D.Gray-man Hallow | [Асино Ёсихару] [TV-2 1-13 из 13] [Jap+Russubs] [2016 г., ужасы, сёнэн, экшн, комедия, драма, мистика, HDTVRip 720p]

 
Автор Сообщение

xxxGabrielxxx

post 05-Июл-16 20:25

pic

Ди Грей-мен: Святые | D.Gray-man Hallow | ディー・グレイマン

pic
Общая информация
Год выпуска: 2016
Страна: Япония pic
Жанр: ужасы, сёнэн, экшн, комедия, драма, мистика
Тип: TV-2 [1-13 из 13]
Продолжительность: 24 минуты
Перевод: отсутствует
Язык: Японский pic
Субтитры: Русские pic
  • внешние ASS, отключаемые
  • Перевод и оформление: Nika_Elrik [YakuSub Studio], Редактор: Aero [YakuSub Studio], Редактор: Arashi-sama [YakuSub Studio]

Студия: pic
Автор оригинала: Хосино Кацура | Hoshino Katsura
Режиссёр: Асино Ёсихару | Ashino Yoshiharu
Рейтинги
pic pic pic pic pic
Описание
Новая экранизация популярной манги, которая выходит с 2004 года по сей день и насчитывает уже более 20 томов, продолжит историю, прерванную в 2008 году.

Действие разворачивается в альтернативной Европе 19 века. В это время идет тайная Священная Война между Тысячелетним Графом и Экзорцистами из Тёмного Ордена. Тысячелетний Граф - создатель Акум, - существ из сложного механизма и запечатанной внутри него человеческой души, - преследует цель уничтожить мир. Согласно пророчеству, написанному на неком Кубе, Граф существовал семь тысяч лет назад и был побеждён некой Чистой Силой (Невинностью), но ценой стало уничтожение мира, известное в Библии как Вселенский Потоп и Ноев Ковчег. Главный герой - Аллен Уолкер, юноша пятнадцати лет, проклятый Акума, носитель Чистой Силы в его левой руке, пытается стать экзорцистом в организации "Тёмный Орден". На него точат зуб приспешники Графа Семья Ноя, Если верить знаниям о Семье Ноя, это те люди, в которых содержатся гены Ноя, сами же они называют себя "высшими апостолами, призванными богом". Они уже много лет разыскивают некое Сердце Чистой Силы.

Технические особенности релиза
Качество: HDTVRip
Формат: MPEG-4
Видео: кодек видео-AVC, разрешение видео-1280х720, битрейт -2063 Кбит/сек, кадров в секунду-23,976 кадра/сек
Аудио:Язык дорожки - pic JАP, кодек-AAC, частота-48,0 КГц, кол-во каналов-2 канала, битрейт-241 Кбит/сек

MediaInfo [Ohys-Raws]

Код:

Общее
Полное имя                               : E:\Аниме\D.Gray-man Hallow\[Ohys-Raws] D.Gray-man HALLOW - 01 (TX 1280x720 x264 AAC).mp4
Формат                                   : MPEG-4
Профиль формата                          : Base Media
Идентификатор кодека                     : isom (isom/avc1)
Размер файла                             : 394 Мбайт
Продолжительность                        : 24 м.
Режим общего битрейта                    : Переменный
Общий поток                              : 2277 Кбит/сек
Дата кодирования                         : UTC 2016-07-04 17:33:06
Дата пометки                             : UTC 2016-07-04 17:33:06

Видео
Идентификатор                            : 1
Формат                                   : AVC
Формат/Информация                        : Advanced Video Codec
Профиль формата                          : [email protected]
Параметр CABAC формата                   : Да
Параметр ReFrames формата                : 4 кадра
Идентификатор кодека                     : avc1
Идентификатор кодека/Информация          : Advanced Video Coding
Продолжительность                        : 24 м.
Битрейт                                  : 2063 Кбит/сек
Максимальный битрейт                     : 13,3 Мбит/сек
Ширина                                   : 1280 пикселей
Высота                                   : 720 пикселей
Соотношение сторон                       : 16:9
Режим частоты кадров                     : Постоянный
Частота кадров                           : 23,976 (24000/1001) кадра/сек
Цветовое пространство                    : YUV
Субдискретизация насыщенности            : 4:2:0
Битовая глубина                          : 8 бит
Тип развёртки                            : Прогрессивная
Бит/(Пиксели*Кадры)                      : 0.093
Размер потока                            : 357 Мбайт (91%)
Библиотека кодирования                   : x264 core 148 r2705 3f5ed56
Настройки программы                      : cabac=1 / ref=3 / deblock=1:0:0 / analyse=0x1:0x111 / me=hex / subme=7 / psy=1 / psy_rd=1.00:0.00 / mixed_ref=1 / me_range=16 / chroma_me=1 / trellis=1 / 8x8dct=0 / cqm=0 / deadzone=21,11 / fast_pskip=1 / chroma_qp_offset=-2 / threads=12 / lookahead_threads=2 / sliced_threads=0 / nr=0 / decimate=1 / interlaced=0 / bluray_compat=0 / constrained_intra=0 / bframes=3 / b_pyramid=2 / b_adapt=1 / b_bias=0 / direct=1 / weightb=1 / open_gop=0 / weightp=2 / keyint=240 / keyint_min=1 / scenecut=40 / intra_refresh=0 / rc_lookahead=40 / rc=crf / mbtree=1 / crf=20.0 / qcomp=0.60 / qpmin=0 / qpmax=69 / qpstep=4 / ip_ratio=1.40 / aq=1:1.50
Дата кодирования                         : UTC 2016-07-04 17:33:06
Дата пометки                             : UTC 2016-07-04 17:33:08
Цветовой диапазон                        : Limited
Основные цвета                           : BT.709
Характеристики трансфера                 : BT.709
Коэффициенты матрицы                     : BT.709

Аудио
Идентификатор                            : 2
Формат                                   : AAC
Формат/Информация                        : Advanced Audio Codec
Профиль формата                          : LC
Идентификатор кодека                     : 40
Продолжительность                        : 24 м.
Вид битрейта                             : Переменный
Битрейт                                  : 211 Кбит/сек
Максимальный битрейт                     : 241 Кбит/сек
Каналы                                   : 2 канала
Расположение каналов                     : Front: L R
Частота                                  : 48,0 КГц
Частота кадров                           : 46,875 кадров/сек (1024 spf)
Метод сжатия                             : С потерями
Размер потока                            : 36,4 Мбайт (9%)
Язык                                     : Japanese
Дата кодирования                         : UTC 2016-07-04 17:21:47
Дата пометки                             : UTC 2016-07-04 17:33:08

Скриншоты
В КАКОМ ПОРЯДКЕ СМОТРЕТЬ
1) D.Gray-man - ТВ (103 эп.), адаптация манги, 2006
2) D.Gray-man Hallow - ТВ (13 эп.), адаптация манги, 2016
Трейлер

Раздача обновлена 30.09.2016 г. Добавлен 13 эпизод и русские субтитры к нему!


pic

pic
D.Gray-man Hallow 1-13 из 13.torrent
Трекер: Зарегистрирован

magnet ссылка

 


Скачать .torrent

30 KB

Статус: проверено (by FURYDIMAN в 01-Окт-16 04:44)
Зарегистрирован: 30-Сен-16 18:46
Скачан: 90 раз
Размер: 5.4 GB | 
Поблагодарили:
Скачать Ди Грей-мен: Святые | D.Gray-man Hallow | [Асино Ёсихару] [TV-2 1-13 из 13] [Jap+Russubs] [2016 г., ужасы, сёнэн, экшн, комедия, драма, мистика, HDTVRip 720p] торрент
 


Похожие раздачи

h1malia13

post 06-Июл-16 01:32 (спустя 5 часов)

НАКОНЕЦ-ТО!!!!

LordStep

post 22-Июл-16 15:34 (спустя 16 дней)

:D :D :D

sollertis

post 22-Июл-16 17:32 (спустя 1 час 58 минут)

Да ладно. Новый сезон это конечно хорошо, но манга вообще почти не сдвигается с мертвой точки.

post 10-Май-17 16:37 (спустя 9 месяцев)

Топик был перенесен из форума Новинки в форум HDTVRip / HDTV 720 / 1080


Snowden
 

Текущее время: 23-Июл 01:42

Часовой пояс: GMT + 3



Вы не можете начинать темы
Вы не можете отвечать на сообщения
Вы не можете редактировать свои сообщения
Вы не можете удалять свои сообщения
Вы не можете голосовать в опросах
Вы не можете прикреплять файлы к сообщениям
Вы не можете скачивать файлы