Loading...
Error
 

Скачать торрент Унесённые призраками | Spirited Away (Хаяо Миядзаки) [Movie] [Без хардсаба] [RUS/UKR(int)+SUB(int)] [2001 г., аниме, мультфильм, фэнтези, BDRip, 1080p]

 
Автор Сообщение

SniperJkeee

post 22-Июл-14 15:41

Унесённые призраками pic Spirited Away
«The tunnel led Chihiro to a mysterious town...»

pic
Год выпуска: 2001
Страна: Япония pic
Жанр: аниме, мультфильм, фэнтези
Продолжительность: 02:04:32 pic
Перевод:
Дублированный / Невафильм, R5
Многоголосый, закадровый / 2x2 / DVDXpert / TET / R.G. AnimEx & AniFilm & UkrDub
Двухголосый, закадровый / Tycoon-Studio / П. Гланц, И. Королёва
Одноголосый, закадровый / Ю. Сербин / А. Гаврилов / А. Толстобров / С. Рябов / Е. Рудой
Оригинал
Субтитры: Russian (R5), Ukrainian, English, Japanese
Режиссер: Хаяо Миядзаки
В ролях: Руми Хираги, Такаши Найто, Ясуко Савагучи, Ирино Мию, Бунта Сугавара, Мари Нацуки, Юми Тамаи, Тацуя Гасюин, Акио Накамура, Рюноскэ Камики
Описание:
Маленькая Тихиро вместе с мамой и папой переезжают в новый дом. Заблудившись по дороге, они оказываются в странном пустынном городе, где их ждет великолепный пир. Родители с жадностью набрасываются на еду и к ужасу девочки превращаются в свиней, став пленниками злой колдуньи Юбабы, властительницы таинственного мира древних богов и могущественных духов.
Теперь, оказавшись одна среди магических существ и загадочных видений, отважная Тихиро должна придумать, как избавить своих родителей от чар коварной старухи и спастись из пугающего царства призраков...
Релиз группы: pic
Качество: BDRip
HD стандарт: 1080p
Формат: MKV
Видео кодек: x264
Аудио кодек: DTS / AC3
Видео: 1920x1038 at 23.976 fps, [email protected], ~9649 kbps avg
Аудио:
pic 48 kHz, DTS, 3/2 (L,C,R,l,r) + LFE ch, ~768.00 kbps avg |Дубляж, Невафильм, R5, CP Digital/RUSCICO|
pic 48 kHz, AC3, 2/0 (L,R) ch, ~192 kbps avg |Многоголосый закадровый, 2х2|
pic 48 kHz, DTS-ES, 3/3 (L,C,R,l,c,r) + LFE ch, ~1509.00 kbps avg |Многоголосый закадровый, DVDXpert|
pic 48 kHz, DTS-ES, 3/3 (L,C,R,l,c,r) + LFE ch, ~1509.00 kbps avg |Двухголосый закадровый, Tycoon-Studio|
pic 48 kHz, DTS-ES, 3/3 (L,C,R,l,c,r) + LFE ch, ~1509.00 kbps avg |Двухголосый закадровый, П. Гланц, И. Королёва|
pic 48 kHz, DTS-ES, 3/3 (L,C,R,l,c,r) + LFE ch, ~1509.00 kbps avg |Одноголосый закадровый, Ю. Сербин|
pic 48 kHz, DTS-ES, 3/3 (L,C,R,l,c,r) + LFE ch, ~1509.00 kbps avg |Одноголосый закадровый, А. Гаврилов|
pic 48 kHz, DTS-ES, 3/3 (L,C,R,l,c,r) + LFE ch, ~1509.00 kbps avg |Одноголосый закадровый, А. Толстобров|
pic 48 kHz, DTS-ES, 3/3 (L,C,R,l,c,r) + LFE ch, ~1509.00 kbps avg |Одноголосый закадровый, С. Рябов|
pic 48 kHz, DTS-ES, 3/3 (L,C,R,l,c,r) + LFE ch, ~1509.00 kbps avg |Одноголосый закадровый, Е. Рудой|
pic 48 kHz, DTS-ES, 3/3 (L,C,R,l,c,r) + LFE ch, ~1509.00 kbps avg
pic 48 kHz, AC3, 2/0 (L,R) ch, ~192 kbps avg |Многоголосый закадровый, ТЕТ|
pic 48 kHz, AC3, 2/0 (L,R) ch, ~192 kbps avg |Многоголосый закадровый, R.G. AnimEx & AniFilm & UkrDub|
pic 48 kHz, AC3, 3/2 (L,C,R,l,r) + LFE ch, ~448.00 kbps avg |Дубляж|

MediaInfo

Код:

Общее
Уникальный идентификатор                 : 240091182556237948538553494218644720940 (0xB49FE139B5D9B2FA92D1BAB6CD350D2C)
Полное имя                               : J:\Sen.to.Chihiro.no.kamikakushi.2001.1080p.BluRay.10xRus.2xUkr.Jap.Eng.HDCLUB.mkv
Формат                                   : Matroska
Версия формата                           : Version 4 / Version 2
Размер файла                             : 21,9 Гбайт
Продолжительность                        : 2 ч. 4 м.
Общий поток                              : 25,2 Мбит/сек
Дата кодирования                         : UTC 2014-07-21 00:58:12
Программа кодирования                    : mkvmerge v6.9.1 ('Blue Panther') 64bit built on Apr 18 2014 18:23:38
Библиотека кодирования                   : libebml v1.3.0 + libmatroska v1.4.1

Видео
Идентификатор                            : 1
Формат                                   : AVC
Формат/Информация                        : Advanced Video Codec
Профиль формата                          : [email protected]
Параметр CABAC формата                   : Да
Параметр ReFrames формата                : 4 кадра
Идентификатор кодека                     : V_MPEG4/ISO/AVC
Продолжительность                        : 2 ч. 4 м.
Битрейт                                  : 9353 Кбит/сек
Ширина                                   : 1920 пикселей
Высота                                   : 1038 пикселей
Соотношение сторон                       : 1,85:1
Режим частоты кадров                     : Постоянный
Частота кадров                           : 23,976 кадра/сек
Цветовое пространство                    : YUV
Субдискретизация насыщенности            : 4:2:0
Битовая глубина                          : 8 бит
Тип развёртки                            : Прогрессивная
Бит/(Пиксели*Кадры)                      : 0.196
Размер потока                            : 8,14 Гбайт (37%)
Библиотека кодирования                   : x264 core 142 r2431kMod ac76440
Настройки программы                      : cabac=1 / ref=4 / deblock=1:-3:-3 / analyse=0x3:0x113 / me=umh / subme=10 / psy=1 / fade_compensate=0.00 / psy_rd=1.10:0.00 / mixed_ref=1 / me_range=32 / chroma_me=1 / trellis=2 / 8x8dct=1 / cqm=0 / deadzone=21,11 / fast_pskip=0 / chroma_qp_offset=-2 / threads=6 / lookahead_threads=1 / sliced_threads=0 / nr=0 / decimate=0 / interlaced=0 / bluray_compat=0 / constrained_intra=0 / fgo=0 / bframes=8 / b_pyramid=2 / b_adapt=2 / b_bias=0 / direct=3 / weightb=1 / open_gop=0 / weightp=2 / keyint=250 / keyint_min=23 / scenecut=40 / intra_refresh=0 / rc_lookahead=60 / rc=crf / mbtree=0 / crf=17.0000 / qcomp=0.70 / qpmin=0 / qpmax=69 / qpstep=4 / vbv_maxrate=50000 / vbv_bufsize=62500 / crf_max=0.0 / nal_hrd=none / filler=0 / ip_ratio=1.20 / pb_ratio=1.10 / aq=1:1.00
Default                                  : Нет
Forced                                   : Нет

Аудио #1
Идентификатор                            : 2
Формат                                   : DTS
Формат/Информация                        : Digital Theater Systems
Режим                                    : 16
Параметр Endianness формата              : Big
Идентификатор кодека                     : A_DTS
Продолжительность                        : 2 ч. 4 м.
Вид битрейта                             : Постоянный
Битрейт                                  : 755 Кбит/сек
Каналы                                   : 6 каналов
Расположение каналов                     : Front: L C R, Side: L R, LFE
Частота                                  : 48,0 КГц
Битовая глубина                          : 24 бит
Метод сжатия                             : С потерями
Размер потока                            : 672 Мбайт (3%)
Заголовок                                : Dub - R5
Язык                                     : Russian
Default                                  : Да
Forced                                   : Нет

Аудио #2
Идентификатор                            : 3
Формат                                   : AC-3
Формат/Информация                        : Audio Coding 3
Расширение режима                        : CM (complete main)
Параметр Endianness формата              : Big
Идентификатор кодека                     : A_AC3
Продолжительность                        : 2 ч. 4 м.
Вид битрейта                             : Постоянный
Битрейт                                  : 192 Кбит/сек
Каналы                                   : 2 канала
Расположение каналов                     : Front: L R
Частота                                  : 48,0 КГц
Битовая глубина                          : 16 бит
Метод сжатия                             : С потерями
Размер потока                            : 171 Мбайт (1%)
Заголовок                                : MVO - 2x2
Язык                                     : Russian
Default                                  : Нет
Forced                                   : Нет

Аудио #3
Идентификатор                            : 4
Формат                                   : DTS
Формат/Информация                        : Digital Theater Systems
Профиль формата                          : ES
Режим                                    : 16
Параметр Endianness формата              : Big
Идентификатор кодека                     : A_DTS
Продолжительность                        : 2 ч. 4 м.
Вид битрейта                             : Постоянный
Битрейт                                  : 1509 Кбит/сек
Каналы                                   : 7 каналов / 6 каналов
Расположение каналов                     : Front: L C R, Side: L R, Back: C, LFE / Front: L C R, Side: L R, LFE
Частота                                  : 48,0 КГц
Битовая глубина                          : 24 бит
Метод сжатия                             : С потерями
Размер потока                            : 1,31 Гбайт (6%)
Заголовок                                : MVO - DVDXpert
Язык                                     : Russian
Default                                  : Нет
Forced                                   : Нет

Аудио #4
Идентификатор                            : 5
Формат                                   : DTS
Формат/Информация                        : Digital Theater Systems
Профиль формата                          : ES
Режим                                    : 16
Параметр Endianness формата              : Big
Идентификатор кодека                     : A_DTS
Продолжительность                        : 2 ч. 4 м.
Вид битрейта                             : Постоянный
Битрейт                                  : 1509 Кбит/сек
Каналы                                   : 7 каналов / 6 каналов
Расположение каналов                     : Front: L C R, Side: L R, Back: C, LFE / Front: L C R, Side: L R, LFE
Частота                                  : 48,0 КГц
Битовая глубина                          : 24 бит
Метод сжатия                             : С потерями
Размер потока                            : 1,31 Гбайт (6%)
Заголовок                                : DVO - Tycoon
Язык                                     : Russian
Default                                  : Нет
Forced                                   : Нет

Аудио #5
Идентификатор                            : 6
Формат                                   : DTS
Формат/Информация                        : Digital Theater Systems
Профиль формата                          : ES
Режим                                    : 16
Параметр Endianness формата              : Big
Идентификатор кодека                     : A_DTS
Продолжительность                        : 2 ч. 4 м.
Вид битрейта                             : Постоянный
Битрейт                                  : 1509 Кбит/сек
Каналы                                   : 7 каналов / 6 каналов
Расположение каналов                     : Front: L C R, Side: L R, Back: C, LFE / Front: L C R, Side: L R, LFE
Частота                                  : 48,0 КГц
Битовая глубина                          : 24 бит
Метод сжатия                             : С потерями
Размер потока                            : 1,31 Гбайт (6%)
Заголовок                                : DVO - Glanz, Koroleva
Язык                                     : Russian
Default                                  : Нет
Forced                                   : Нет

Аудио #6
Идентификатор                            : 7
Формат                                   : DTS
Формат/Информация                        : Digital Theater Systems
Профиль формата                          : ES
Режим                                    : 16
Параметр Endianness формата              : Big
Идентификатор кодека                     : A_DTS
Продолжительность                        : 2 ч. 4 м.
Вид битрейта                             : Постоянный
Битрейт                                  : 1509 Кбит/сек
Каналы                                   : 7 каналов / 6 каналов
Расположение каналов                     : Front: L C R, Side: L R, Back: C, LFE / Front: L C R, Side: L R, LFE
Частота                                  : 48,0 КГц
Битовая глубина                          : 24 бит
Метод сжатия                             : С потерями
Размер потока                            : 1,31 Гбайт (6%)
Заголовок                                : AVO - Serbin
Язык                                     : Russian
Default                                  : Нет
Forced                                   : Нет

Аудио #7
Идентификатор                            : 8
Формат                                   : DTS
Формат/Информация                        : Digital Theater Systems
Профиль формата                          : ES
Режим                                    : 16
Параметр Endianness формата              : Big
Идентификатор кодека                     : A_DTS
Продолжительность                        : 2 ч. 4 м.
Вид битрейта                             : Постоянный
Битрейт                                  : 1509 Кбит/сек
Каналы                                   : 7 каналов / 6 каналов
Расположение каналов                     : Front: L C R, Side: L R, Back: C, LFE / Front: L C R, Side: L R, LFE
Частота                                  : 48,0 КГц
Битовая глубина                          : 24 бит
Метод сжатия                             : С потерями
Размер потока                            : 1,31 Гбайт (6%)
Заголовок                                : AVO - Gavrilov
Язык                                     : Russian
Default                                  : Нет
Forced                                   : Нет

Аудио #8
Идентификатор                            : 9
Формат                                   : DTS
Формат/Информация                        : Digital Theater Systems
Профиль формата                          : ES
Режим                                    : 16
Параметр Endianness формата              : Big
Идентификатор кодека                     : A_DTS
Продолжительность                        : 2 ч. 4 м.
Вид битрейта                             : Постоянный
Битрейт                                  : 1509 Кбит/сек
Каналы                                   : 7 каналов / 6 каналов
Расположение каналов                     : Front: L C R, Side: L R, Back: C, LFE / Front: L C R, Side: L R, LFE
Частота                                  : 48,0 КГц
Битовая глубина                          : 24 бит
Метод сжатия                             : С потерями
Размер потока                            : 1,31 Гбайт (6%)
Заголовок                                : AVO - Tolstobrov
Язык                                     : Russian
Default                                  : Нет
Forced                                   : Нет

Аудио #9
Идентификатор                            : 10
Формат                                   : DTS
Формат/Информация                        : Digital Theater Systems
Профиль формата                          : ES
Режим                                    : 16
Параметр Endianness формата              : Big
Идентификатор кодека                     : A_DTS
Продолжительность                        : 2 ч. 4 м.
Вид битрейта                             : Постоянный
Битрейт                                  : 1509 Кбит/сек
Каналы                                   : 7 каналов / 6 каналов
Расположение каналов                     : Front: L C R, Side: L R, Back: C, LFE / Front: L C R, Side: L R, LFE
Частота                                  : 48,0 КГц
Битовая глубина                          : 24 бит
Метод сжатия                             : С потерями
Размер потока                            : 1,31 Гбайт (6%)
Заголовок                                : AVO - Ryabov
Язык                                     : Russian
Default                                  : Нет
Forced                                   : Нет

Аудио #10
Идентификатор                            : 11
Формат                                   : DTS
Формат/Информация                        : Digital Theater Systems
Профиль формата                          : ES
Режим                                    : 16
Параметр Endianness формата              : Big
Идентификатор кодека                     : A_DTS
Продолжительность                        : 2 ч. 4 м.
Вид битрейта                             : Постоянный
Битрейт                                  : 1509 Кбит/сек
Каналы                                   : 7 каналов / 6 каналов
Расположение каналов                     : Front: L C R, Side: L R, Back: C, LFE / Front: L C R, Side: L R, LFE
Частота                                  : 48,0 КГц
Битовая глубина                          : 24 бит
Метод сжатия                             : С потерями
Размер потока                            : 1,31 Гбайт (6%)
Заголовок                                : AVO - Rudoi
Язык                                     : Russian
Default                                  : Нет
Forced                                   : Нет

Аудио #11
Идентификатор                            : 12
Формат                                   : DTS
Формат/Информация                        : Digital Theater Systems
Профиль формата                          : ES
Режим                                    : 16
Параметр Endianness формата              : Big
Идентификатор кодека                     : A_DTS
Продолжительность                        : 2 ч. 4 м.
Вид битрейта                             : Постоянный
Битрейт                                  : 1509 Кбит/сек
Каналы                                   : 7 каналов / 6 каналов
Расположение каналов                     : Front: L C R, Side: L R, Back: C, LFE / Front: L C R, Side: L R, LFE
Частота                                  : 48,0 КГц
Битовая глубина                          : 24 бит
Метод сжатия                             : С потерями
Размер потока                            : 1,31 Гбайт (6%)
Язык                                     : Japanese
Default                                  : Нет
Forced                                   : Нет

Аудио #12
Идентификатор                            : 13
Формат                                   : AC-3
Формат/Информация                        : Audio Coding 3
Расширение режима                        : CM (complete main)
Параметр Endianness формата              : Big
Идентификатор кодека                     : A_AC3
Продолжительность                        : 2 ч. 4 м.
Вид битрейта                             : Постоянный
Битрейт                                  : 192 Кбит/сек
Каналы                                   : 2 канала
Расположение каналов                     : Front: L R
Частота                                  : 48,0 КГц
Битовая глубина                          : 16 бит
Метод сжатия                             : С потерями
Размер потока                            : 171 Мбайт (1%)
Заголовок                                : MVO - TET
Язык                                     : Ukrainian
Default                                  : Нет
Forced                                   : Нет

Аудио #13
Идентификатор                            : 14
Формат                                   : AC-3
Формат/Информация                        : Audio Coding 3
Расширение режима                        : CM (complete main)
Параметр Endianness формата              : Big
Идентификатор кодека                     : A_AC3
Продолжительность                        : 2 ч. 4 м.
Вид битрейта                             : Постоянный
Битрейт                                  : 192 Кбит/сек
Каналы                                   : 2 канала
Расположение каналов                     : Front: L R
Частота                                  : 48,0 КГц
Битовая глубина                          : 16 бит
Метод сжатия                             : С потерями
Размер потока                            : 171 Мбайт (1%)
Заголовок                                : MVO - AnimEx, AniFilm, UkrDub
Язык                                     : Ukrainian
Default                                  : Нет
Forced                                   : Нет

Аудио #14
Идентификатор                            : 15
Формат                                   : AC-3
Формат/Информация                        : Audio Coding 3
Расширение режима                        : CM (complete main)
Параметр Endianness формата              : Big
Идентификатор кодека                     : A_AC3
Продолжительность                        : 2 ч. 4 м.
Вид битрейта                             : Постоянный
Битрейт                                  : 448 Кбит/сек
Каналы                                   : 6 каналов
Расположение каналов                     : Front: L C R, Side: L R, LFE
Частота                                  : 48,0 КГц
Битовая глубина                          : 16 бит
Метод сжатия                             : С потерями
Размер потока                            : 399 Мбайт (2%)
Заголовок                                : Dub
Язык                                     : English
Default                                  : Нет
Forced                                   : Нет

Текст #1
Идентификатор                            : 16
Формат                                   : UTF-8
Идентификатор кодека                     : S_TEXT/UTF8
Идентификатор кодека/Информация          : UTF-8 Plain Text
Язык                                     : Russian
Default                                  : Нет
Forced                                   : Нет

Текст #2
Идентификатор                            : 17
Формат                                   : UTF-8
Идентификатор кодека                     : S_TEXT/UTF8
Идентификатор кодека/Информация          : UTF-8 Plain Text
Язык                                     : Ukrainian
Default                                  : Нет
Forced                                   : Нет

Текст #3
Идентификатор                            : 18
Формат                                   : UTF-8
Идентификатор кодека                     : S_TEXT/UTF8
Идентификатор кодека/Информация          : UTF-8 Plain Text
Язык                                     : English
Default                                  : Нет
Forced                                   : Нет

Текст #4
Идентификатор                            : 19
Формат                                   : UTF-8
Идентификатор кодека                     : S_TEXT/UTF8
Идентификатор кодека/Информация          : UTF-8 Plain Text
Язык                                     : Japanese
Default                                  : Нет
Forced                                   : Нет

Меню
00:00:00.000                             : en:00:00:00.000
00:01:39.099                             : en:00:01:39.099
00:03:16.238                             : en:00:03:16.238
00:07:23.526                             : en:00:07:23.526
00:10:45.395                             : en:00:10:45.395
00:17:03.022                             : en:00:17:03.022
00:22:48.534                             : en:00:22:48.534
00:28:36.048                             : en:00:28:36.048
00:33:28.173                             : en:00:33:28.173
00:38:21.674                             : en:00:38:21.674
00:44:11.816                             : en:00:44:11.816
00:48:26.821                             : en:00:48:26.821
00:54:31.351                             : en:00:54:31.351
01:02:09.017                             : en:01:02:09.017
01:08:11.587                             : en:01:08:11.587
01:14:36.847                             : en:01:14:36.847
01:19:10.579                             : en:01:19:10.579
01:25:39.760                             : en:01:25:39.760
01:31:18.890                             : en:01:31:18.890
01:37:33.806                             : en:01:37:33.806
01:45:18.937                             : en:01:45:18.937
01:50:25.118                             : en:01:50:25.118
01:52:51.098                             : en:01:52:51.098
01:55:14.199                             : en:01:55:14.199
02:00:53.580                             : en:02:00:53.580

Скриншоты
Sen.to.Chihiro.no.kamikakushi.2001.1080p.BluRay.10xRus.2xUkr.Jap.Eng.HDCLUB.mkv.torrent
 СЕРЕБРЯНАЯ РАЗДАЧА! СКАЧАННОЕ ЗАСЧИТЫВАЕТСЯ ТОЛЬКО НАПОЛОВИНУ! 
Вечный
Трекер: Зарегистрирован

magnet ссылка

 


Скачать .torrent

110 KB

Статус: проверено (by BRinkaaa в 22-Июл-14 17:03)
Зарегистрирован: 22-Июл-14 15:41
Скачан: 90 раз
Размер: 21.93 GB | 
Поблагодарили:
Скачать Унесённые призраками | Spirited Away (Хаяо Миядзаки) [Movie] [Без хардсаба] [RUS/UKR(int)+SUB(int)] [2001 г., аниме, мультфильм, фэнтези, BDRip, 1080p] торрент
 


Похожие раздачи

BRinkaaa

post 22-Июл-14 15:58 (спустя 16 минут)

SniperJkeee
Постер не выше 550х550 :!:
MediaInfo добавь :!:

suffering_pain

post 22-Июл-14 16:00 (спустя 2 минуты)

Видео скольки битности?

SniperJkeee

post 22-Июл-14 16:26 (спустя 25 минут)

BRinkaaa
MediaInfo добавил.
З.Ы. по поводу обложки мне говорить ничего не нужно, давным давно уже максимум 550x600.

Notpruff

post 22-Июл-14 17:18 (спустя 52 минуты)

2 вопроса.
1. Стоит ли знакомиться с аниме посредством этого фильма? (просто краем уха слышал, что одно из лучших творений в этом жанре)
2. С каким переводом стоит смотреть?
Заранее спасибо за ответ.

BRinkaaa

post 22-Июл-14 17:55 (спустя 36 минут)

Notpruff
Лично для меня это аниме шедевр, да и все творения Хаяо Миядзаки шедевры :)

donartyom

post 22-Июл-14 23:48 (спустя 5 часов)

Помню смотрел.. Атмосфера безысходности передана как надо. 10/10 :oops:

Иноколай

post 08-Июн-17 14:18 (спустя 2 года 10 месяцев)

Аниме безупречное, а раздачи нет( плеаз, подайте раздачу happy

Текущее время: 22-Ноя 15:39

Часовой пояс: GMT + 3



Вы не можете начинать темы
Вы не можете отвечать на сообщения
Вы не можете редактировать свои сообщения
Вы не можете удалять свои сообщения
Вы не можете голосовать в опросах
Вы не можете прикреплять файлы к сообщениям
Вы не можете скачивать файлы