Loading...
Error
 

Скачать торрент Вечер с Владимиром Соловьевым (эфир от 01.08.2017) [2017, Информационно-аналитическая программа, SATRip]

 
Автор Сообщение

centoriuse

post 01-Авг-17 21:28

pic
Вечер с Владимиром Соловьевым (эфир от 01.08.2017)

Год выпуска: 2017
Страна: Россия, ВГТРК
Ведущий: Владимир Соловьёв
Жанр: Информационно-аналитическая программа
Продолжительность: 02:31:24

Описание:
"Мы ставили задачу сделать программу для умного, неравнодушного зрителя, которая позволит обсуждать актуальные проблемы в разных форматах: от интервью "один на один" до "круглого стола". Надеемся, она будет такой же острой, как политическое ток-шоу "Поединок". Но если в "Поединке" сталкиваются две полярные точки зрения, то здесь мы намерены представить более широкий спектр мнений: ведь в обществе обсуждается множество тем, которые вызывают не только однозначные реакции", - сказал автор проекта Владимир Соловьев.

Качество: SATRip
Формат: avi
Видео кодек: XviD,
Аудио кодек: AC3
Видео: MPEG4, XviD, 720x400 (16:9), 25.000 fps, 1 799 Kbps (0.250 bit/pixel)
Аудио: 48.0 KHz, 2 ch, 192 Kbps, CBR
MediaInfo

Код:

Общее
Полное имя                               : F:\видео\фильмы\Вечер с Владимиром Соловьевым\Вечер с Владимиром Соловьевым (2017.08.01) SATRip.avi
Формат                                   : AVI
Формат/Информация                        : Audio Video Interleave
Профиль формата                          : OpenDML
Размер файла                             : 2,12 Гбайт
Продолжительность                        : 2 ч. 31 м.
Общий поток                              : 2003 Кбит/сек
Программа кодирования                    : VirtualDubMod 1.5.10.3 | http://www.virtualdub-fr.org || (build 2550/release)
Библиотека кодирования                   : VirtualDubMod build 2550/release

Видео
Идентификатор                            : 0
Формат                                   : MPEG-4 Visual
Профиль формата                          : Advanced [email protected]
Параметр BVOP формата                    : 1
Параметр QPel формата                    : Нет
Параметр GMC формата                     : Без точки перехода
Параметр матрицы формата                 : Default (H.263)
Идентификатор кодека                     : XVID
Идентификатор кодека/Подсказка           : XviD
Продолжительность                        : 2 ч. 31 м.
Битрейт                                  : 1799 Кбит/сек
Ширина                                   : 720 пикселей
Высота                                   : 400 пикселей
Соотношение сторон                       : 16:9
Частота кадров                           : 25,000 кадров/сек
Цветовое пространство                    : YUV
Субдискретизация насыщенности            : 4:2:0
Битовая глубина                          : 8 бит
Тип развёртки                            : Прогрессивная
Метод сжатия                             : С потерями
Бит/(Пиксели*Кадры)                      : 0.250
Размер потока                            : 1,90 Гбайт (90%)
Библиотека кодирования                   : XviD 1.2.1 (UTC 2008-12-04)

Аудио
Идентификатор                            : 1
Формат                                   : AC-3
Формат/Информация                        : Audio Coding 3
Параметр Endianness формата              : Big
Идентификатор кодека                     : 2000
Продолжительность                        : 2 ч. 31 м.
Вид битрейта                             : Постоянный
Битрейт                                  : 192 Кбит/сек
Каналы                                   : 2 канала
Расположение каналов                     : Front: L R
Частота                                  : 48,0 КГц
Частота кадров                           : 31,250 кадров/сек (1536 SPF)
Битовая глубина                          : 16 бит
Метод сжатия                             : С потерями
Размер потока                            : 208 Мбайт (10%)
Выравнивание                             : Разделение по промежуткам
Продолжительность промежутка             : 40  мс. (1,00 видеокадр)
Время предзагрузки промежутка            : 500  мс.
ServiceKind/String                       : Complete Main
Скриншоты:
Владимиром Соловьевым (2017.08.01) SATRip.avi.torrent
Трекер: Зарегистрирован

magnet ссылка

 


Скачать .torrent

11 KB

Статус: проверено (by and77200 в 02-Авг-17 00:05)
Зарегистрирован: 01-Авг-17 21:28
Скачан: 21 раз
Размер: 2.12 GB | 
Поблагодарили:
Скачать Вечер с Владимиром Соловьевым (эфир от 01.08.2017) [2017, Информационно-аналитическая программа, SATRip] торрент
 


Похожие раздачи

Текущее время: 17-Июн 15:44

Часовой пояс: GMT + 3



Вы не можете начинать темы
Вы не можете отвечать на сообщения
Вы не можете редактировать свои сообщения
Вы не можете удалять свои сообщения
Вы не можете голосовать в опросах
Вы не можете прикреплять файлы к сообщениям
Вы не можете скачивать файлы