Loading...
Error
 

Скачать торрент Это вовсе не Терминатор 3D / This Ain't Terminator XXX 3D (Axel Braun, Hustler) [2013 г., Parodies, Hardcore, Big tits, 1080p] Blu-Ray 2D, 3D

 
Автор Сообщение

falco

post 20-Апр-13 07:58

Это вовсе не Терминатор 3D
This Ain't Terminator XXX 3D
pic

  • Год производства: 2013 г.
  • Страна: USA
  • Жанр: Parodies, Hardcore, Big tits
  • Продолжительность: 01:41:32
  • Перевод: Отсутствует
  • Субтитры: Отсутствуют
  • Режиссер: Axel Braun
  • Студия: Hustler
  • В ролях: Julia Ann, Alex Gonz, Billy Glide, Juelz Ventura, Brendon Miller, Bailey Blue, Melina Mason, Dick Delaware, Sabrina Maree, Leya Falcon, Brett R
  • Описание: Роговые киборга отправляется из будущего, чтобы убить Сару Коннор, молодая женщина, чья жизнь будет иметь большое влияние на человечество в ближайшие годы. Спасибо полностью, терминатор есть одна слабость: киска. С наградами режиссер Аксель Браун приходит новая веселая пародия 3D, что еще раз поднимает планку для порно пародии! [ПРОМТ]
  • Качество видео: Blu-Ray 2D, 3D
  • Контейнер: : ISO
  • Видео кодек: AVC
  • Аудио кодек: AC3
  • Видео: MPEG-4 AVC Video, 18798 kbps, 1920x1080p, 23,976 fps, 16:9, High Profile 4.1 | MVC, 9399 kbps
  • Аудио: English, Dolby Digital Audio, 2.0, 48 kHz, 256 kbps, DN -4dB
  • Релиз: pic

MediaInfo

Код:

General
Complete name                  : F:\\BDMV\PLAYLIST\00001.mpls
Format                         : Blu-ray Playlist
File size                      : 952 Bytes
Duration                       : 1h 41mn
Overall bit rate mode          : Variable
Overall bit rate               : 1 bps

Video #1
ID                             : 4114 (0x1012) / 4113 (0x1011)
Menu ID                        : 1 (0x1)
Format                         : AVC
Format/Info                    : Advanced Video Codec
Format profile                 : Stereo [email protected] / [email protected]
Format settings, CABAC         : Yes
Format settings, ReFrames      : 4 frames
Format settings, GOP           : M=3, N=24
Codec ID                       : 27
Duration                       : 1h 41mn
Bit rate mode                  : Variable
Bit rate                       : 28.4 Mbps / 18.9 Mbps
Maximum bit rate               : 35.0 Mbps
Width                          : 1 920 pixels
Height                         : 1 080 pixels
Display aspect ratio           : 16:9
Frame rate                     : 23.976 fps
Standard                       : NTSC
Color space                    : YUV
Chroma subsampling             : 4:2:0
Bit depth                      : 8 bits
Scan type                      : Progressive
Bits/(Pixel*Frame)             : 0.572
Stream size                    : 13.4 GiB (95%)
Color primaries                : BT.709
Transfer characteristics       : BT.709
Matrix coefficients            : BT.709
Source                         : 00001.m2ts / 00000.m2ts

Video #2
ID                             : 4114 (0x1012) / 4113 (0x1011)
Menu ID                        : 1 (0x1)
Format                         : AVC
Format/Info                    : Advanced Video Codec
Format profile                 : Stereo [email protected] / [email protected]
Format settings, CABAC         : Yes
Format settings, ReFrames      : 4 frames
Codec ID                       : 27
Duration                       : 542ms
Bit rate mode                  : Variable
Maximum bit rate               : 35.0 Mbps
Width                          : 1 920 pixels
Height                         : 1 080 pixels
Display aspect ratio           : 16:9
Frame rate                     : 23.976 fps
Standard                       : NTSC
Color space                    : YUV
Chroma subsampling             : 4:2:0
Bit depth                      : 8 bits
Scan type                      : Progressive
Color primaries                : BT.709
Transfer characteristics       : BT.709
Matrix coefficients            : BT.709
Source                         : 00005.m2ts / 00004.m2ts

Audio
ID                             : 4352 (0x1100)
Menu ID                        : 1 (0x1)
Format                         : AC-3
Format/Info                    : Audio Coding 3
Mode extension                 : CM (complete main)
Format settings, Endianness    : Big
Codec ID                       : 129
Duration                       : 1h 41mn
Bit rate mode                  : Constant
Bit rate                       : 256 Kbps
Channel(s)                     : 2 channels
Channel positions              : Front: L R
Sampling rate                  : 48.0 KHz
Bit depth                      : 16 bits
Compression mode               : Lossy
Stream size                    : 186 MiB (1%)
Language                       : English
dsurmod                        : 0
dialnorm                       : -27
dialnorm/String                : -27 dB
compr                          : -0.28
compr/String                   : -0.28 dB
bsid                           : 8
dialnorm_Average               : -27
dialnorm_Average/String        : -27 dB
dialnorm_Minimum               : -27
dialnorm_Minimum/String        : -27 dB
dialnorm_Maximum               : -27
dialnorm_Maximum/String        : -27 dB
dialnorm_Count                 : 550
compr_Average                  : -3.82
compr_Average/String           : -3.82 dB
compr_Minimum                  : -6.88
compr_Minimum/String           : -6.88 dB
compr_Maximum                  : 2.36
compr_Maximum/String           : 2.36 dB
compr_Count                    : 550
dynrng_Average                 : -3.79
dynrng_Average/String          : -3.79 dB
dynrng_Minimum                 : -6.88
dynrng_Minimum/String          : -6.88 dB
dynrng_Maximum                 : 2.36
dynrng_Maximum/String          : 2.36 dB
dynrng_Count                   : 550
Source                         : 00000.m2ts

Menu
00:00:00.000                   : Chapter 1
00:00:22.022                   : Chapter 2
00:01:57.283                   : Chapter 3
00:02:36.072                   : Chapter 4
00:04:01.032                   : Chapter 5
00:09:27.358                   : Chapter 6
00:14:03.050                   : Chapter 7
00:16:32.741                   : Chapter 8
00:18:33.362                   : Chapter 9
00:19:39.428                   : Chapter 10
00:21:56.064                   : Chapter 11
00:25:47.879                   : Chapter 12
00:29:39.694                   : Chapter 13
00:32:27.278                   : Chapter 14
00:36:56.672                   : Chapter 15
00:39:34.205                   : Chapter 16
00:41:40.164                   : Chapter 17
00:43:28.230                   : Chapter 18
00:45:24.555                   : Chapter 19
00:46:17.649                   : Chapter 20
00:47:48.240                   : Chapter 21
00:52:06.706                   : Chapter 22
00:58:35.136                   : Chapter 23
01:02:06.597                   : Chapter 24
01:05:34.472                   : Chapter 25
01:06:25.022                   : Chapter 26
01:09:47.933                   : Chapter 27
01:10:29.350                   : Chapter 28
01:18:12.979                   : Chapter 29
01:22:37.702                   : Chapter 30
01:27:24.322                   : Chapter 31
01:36:01.839                   : Chapter 32
01:37:15.204                   : Chapter 33
01:39:41.016                   : Chapter 34

Скринлисты
pic
pic
Не забывайте ПИСАТЬ "СПАСИБО!" - продлите жизнь раздаче!
(кнопка этого не делает)
pic
This Ain't Terminator XXX 3D.torrent
 ЗОЛОТАЯ РАЗДАЧА! СКАЧАННОЕ НЕ ЗАСЧИТЫВАЕТСЯ! 
Вечный
Трекер: Зарегистрирован

magnet ссылка

 


Скачать .torrent

55 KB

Статус: проверено (by PlayBoy777 в 20-Апр-13 08:14)
Зарегистрирован: 20-Апр-13 07:58
Скачан: 387 раз
Размер: 21.64 GB | 
Поблагодарили:
Скачать Это вовсе не Терминатор 3D / This Ain't Terminator XXX 3D (Axel Braun, Hustler) [2013 г., Parodies, Hardcore, Big tits, 1080p] Blu-Ray 2D, 3D торрент
 


Похожие раздачи

post 09-Май-13 12:03 (спустя 19 дней)

Топик был перенесен из форума Новые поступления в форум Pron HD (720p/1080p/1080i)

Причина переноса: Правила Pron
PlayBoy777
 

treedo

post 04-Май-15 02:28 (спустя 2 года)

можно встать на раздачу ?

post 09-Янв-18 15:44 (спустя 2 года 8 месяцев)

Топик был перенесен из форума Pron HD (720p/1080p) в форум Архив Pron


Snowden
 

Текущее время: 15-Дек 23:26

Часовой пояс: GMT + 3



Вы не можете начинать темы
Вы не можете отвечать на сообщения
Вы не можете редактировать свои сообщения
Вы не можете удалять свои сообщения
Вы не можете голосовать в опросах
Вы не можете прикреплять файлы к сообщениям
Вы не можете скачивать файлы