Loading...
Error
 

Скачать торрент Игра Эндера / Ender's Game (Гэвин Худ) [2013, Фантастика, Боевик, Приключения, UHD BDRemux 2160p] [HEVC] DUB | Лицензия

 
Автор Сообщение

mikos

post 15-Апр-18 13:54

pic
Игра Эндера / Ender's Gamel


«Это не игра»


  • pic Год выпуска: 2013
  • pic Страна: США / Chartoff Productions, Digital Domain Media Group, Kurtzman Orci Paper Products, Summit Entertainment
  • pic Жанр: Фантастика, Боевик, Приключения
  • pic Продолжительность: 01:53:57
  • pic Перевод: Профессиональный (многоголосый, полное дублирование), Авторский (одноголосый, закадровый)
  • pic Субтитры: Русские (Full), Английские (Full, SDH)



  • pic Режиссер: Гэвин Худ


  • pic В ролях: Харрисон Форд, Бен Кингсли, Эйса Баттерфилд, Эбигейл Бреслин, Хейли Стайнфелд, Виола Дэвис, Мойзес Ариас, Нонсо Анози, Арамис Найт, Брэндон Су Ху



  • pic О фильме: Земля была дважды разорена инопланетной расой, которая решила уничтожить человечество. Семьдесят лет спустя люди Земли объединяются, чтобы не допустить их собственного истребления. Эндер Виггин — тихий, но невероятно способный мальчик, который может стать спасителем человеческой расы. Его отправляют в специальную школу, размещенную на орбите Земли, где его превратят в убийцу, способного противостоять инопланетному вторжению… Экранизация по произведению: Орсон Скотт Кард.


  • pic Релиз от: ExKinoRay


  • pic Качество: UHD BDRemux (HDR) [2160][10- bit]
  • pic Формат: MKV
  • pic Видео кодек: H.265
  • pic Аудио кодек: AC3, TrueHD,
  • pic Видео: HEVC/H.265, 3840x2160, 23.976 fps, 60.0 Mbps
  • pic Аудио 1: AC3, 6 ch, 384 Kbps 48,0 KHz — Русский, Профессиональный (многоголосый, полное дублирование) "TV 1000 Action"
  • pic Аудио 2: AC3, 2 ch, 192 Kbps 48,0 KHz— Русский, Профессиональный (многоголосый, полное дублирование) "THT"
  • pic Аудио 3: AC3, 6 ch, 640 Kbps 48,0 KHz — Русский, Гаврилов (AVO)
  • pic Аудио 4:AC3, 6 ch, 640 Kbps 48,0 KHz— Русский, Горчаков (AVO)
  • pic Аудио 5: TrueHD, 8 ch, ~4879 Kbps, 24-bit 48,0 KHz — Английский, Оригинальный
  • pic Аудио 6: AC3, 6 ch, 640 Kbps 48,0 KHz — Английский


Рейтинг
pic pic
Mediainfo:
General
Unique ID : 266937169494511044421758922093673277426 (0xC8D23A92A21904BF8D5BA0CE678B67F2)
Complete name : C:\Users\Home\Downloads\Ender's.Game.2013.BDREMUX.2160p.4K.UltraHD.HEVC.HDR.mkv
Format : Matroska
Format version : Version 4 / Version 2
File size : 53.5 GiB
Duration : 1 h 53 min
Overall bit rate : 67.2 Mb/s
Movie name : Ender's Game 2013
Encoded date : UTC 2017-12-19 01:05:57
Writing application : mkvmerge v19.0.0 ('Brave Captain') 64-bit
Writing library : libebml v1.3.5 + libmatroska v1.4.8

Video
ID : 1
Format : HEVC
Format/Info : High Efficiency Video Coding
Format profile : Main [email protected]@High
Codec ID : V_MPEGH/ISO/HEVC
Duration : 1 h 53 min
Bit rate : 60.0 Mb/s
Width : 3 840 pixels
Height : 2 160 pixels
Display aspect ratio : 16:9
Frame rate mode : Constant
Frame rate : 23.976 (24000/1001) FPS
Color space : YUV
Chroma subsampling : 4:2:0 (Type 2)
Bit depth : 10 bits
Writing library : ATEME Titan KFE 3.7.3 (4.7.3.1003)
Language : English
Default : Yes
Forced : No
Color range : Limited
Color primaries : BT.2020
Transfer characteristics : PQ
Matrix coefficients : BT.2020 non-constant
Mastering display color primar : Display P3
Mastering display luminance : min: 0.0050 cd/m2, max: 4000 cd/m2

Audio #1
ID : 2
Format : AC-3
Format/Info : Audio Coding 3
Codec ID : A_AC3
Duration : 1 h 53 min
Bit rate mode : Constant
Bit rate : 384 kb/s
Channel(s) : 6 channels
Channel positions : Front: L C R, Side: L R, LFE
Sampling rate : 48.0 kHz
Frame rate : 31.250 FPS (1536 SPF)
Bit depth : 16 bits
Compression mode : Lossy
Stream size : 313 MiB (1%)
Title : Dub
Language : Russian
Service kind : Complete Main
Default : Yes
Forced : No

Audio #2
ID : 3
Format : AC-3
Format/Info : Audio Coding 3
Codec ID : A_AC3
Duration : 1 h 53 min
Bit rate mode : Constant
Bit rate : 192 kb/s
Channel(s) : 2 channels
Channel positions : Front: L R
Sampling rate : 48.0 kHz
Frame rate : 31.250 FPS (1536 SPF)
Bit depth : 16 bits
Compression mode : Lossy
Stream size : 156 MiB (0%)
Title : THT
Language : Russian
Service kind : Complete Main
Default : No
Forced : No

Audio #3
ID : 4
Format : AC-3
Format/Info : Audio Coding 3
Codec ID : A_AC3
Duration : 1 h 53 min
Bit rate mode : Constant
Bit rate : 640 kb/s
Channel(s) : 6 channels
Channel positions : Front: L C R, Side: L R, LFE
Sampling rate : 48.0 kHz
Frame rate : 31.250 FPS (1536 SPF)
Bit depth : 16 bits
Compression mode : Lossy
Stream size : 522 MiB (1%)
Title : AVO [Gavrilov]
Language : Russian
Service kind : Complete Main
Default : No
Forced : No

Audio #4
ID : 5
Format : AC-3
Format/Info : Audio Coding 3
Codec ID : A_AC3
Duration : 1 h 53 min
Bit rate mode : Constant
Bit rate : 640 kb/s
Channel(s) : 6 channels
Channel positions : Front: L C R, Side: L R, LFE
Sampling rate : 48.0 kHz
Frame rate : 31.250 FPS (1536 SPF)
Bit depth : 16 bits
Compression mode : Lossy
Stream size : 522 MiB (1%)
Title : AVO [Gorchakov]
Language : Russian
Service kind : Complete Main
Default : No
Forced : No

Audio #5
ID : 6
Format : TrueHD
Format profile : TrueHD+Atmos / TrueHD
Codec ID : A_TRUEHD
Bit rate mode : Variable
Bit rate : 4 879 kb/s
Maximum bit rate : 8 028 kb/s
Channel(s) : Object Based / 8 channels
Channel positions : Object Based / Front: L C R, Side: L R, Back: L R, LFE
Sampling rate : / 48.0 kHz
Frame rate : 1 200.000 FPS (40 SPF)
Compression mode : Lossless
Title : Original
Language : English
Default : No
Forced : No

Audio #6
ID : 7
Format : AC-3
Format/Info : Audio Coding 3
Codec ID : A_AC3
Duration : 1 h 53 min
Bit rate mode : Constant
Bit rate : 640 kb/s
Channel(s) : 6 channels
Channel positions : Front: L C R, Side: L R, LFE
Sampling rate : 48.0 kHz
Frame rate : 31.250 FPS (1536 SPF)
Bit depth : 16 bits
Compression mode : Lossy
Stream size : 522 MiB (1%)
Language : English
Service kind : Complete Main
Default : No
Forced : No

Text #1
ID : 8
Format : UTF-8
Codec ID : S_TEXT/UTF8
Codec ID/Info : UTF-8 Plain Text
Title : Full [Voronin]
Language : Russian
Default : No
Forced : No

Text #2
ID : 9
Format : UTF-8
Codec ID : S_TEXT/UTF8
Codec ID/Info : UTF-8 Plain Text
Title : Full
Language : English
Default : No
Forced : No

Text #3
ID : 10
Format : UTF-8
Codec ID : S_TEXT/UTF8
Codec ID/Info : UTF-8 Plain Text
Title : SDH
Language : English
Default : No
Forced : No

Menu
00:00:00.000 : en:Chapter 1
00:06:11.580 : en:Chapter 2
00:14:16.314 : en:Chapter 3
00:19:07.146 : en:Chapter 4
00:28:08.145 : en:Chapter 5
00:33:23.668 : en:Chapter 6
00:39:35.665 : en:Chapter 7
00:45:44.408 : en:Chapter 8
00:53:38.715 : en:Chapter 9
01:02:16.608 : en:Chapter 10
01:09:22.950 : en:Chapter 11
01:15:17.888 : en:Chapter 12
01:23:39.306 : en:Chapter 13
01:30:55.825 : en:Chapter 14
01:35:44.280 : en:Chapter 15
01:41:13.859 : en:Chapter 16
Trailer
Скриншоты


pic


Время раздачи:с 4 до 20 мск
Ender's.Game.2013.BDREMUX.2160p.4K.UltraHD.HEVC.HDR.ExKinoRay.mkv.torrent
 ЗОЛОТАЯ РАЗДАЧА! СКАЧАННОЕ НЕ ЗАСЧИТЫВАЕТСЯ! 
Вечный
Трекер: Зарегистрирован

magnet ссылка

 


Скачать .torrent

268 KB

Статус: проверено (by Snowden в 15-Апр-18 14:03)
Зарегистрирован: 15-Апр-18 13:54
Скачан: 44 раза
Размер: 53.46 GB | 
Поблагодарили:
Скачать Игра Эндера / Ender's Game (Гэвин Худ) [2013, Фантастика, Боевик, Приключения, UHD BDRemux 2160p] [HEVC] DUB | Лицензия торрент
 


Похожие раздачи

Текущее время: 17-Окт 21:19

Часовой пояс: GMT + 3



Вы не можете начинать темы
Вы не можете отвечать на сообщения
Вы не можете редактировать свои сообщения
Вы не можете удалять свои сообщения
Вы не можете голосовать в опросах
Вы не можете прикреплять файлы к сообщениям
Вы не можете скачивать файлы