Loading...
Error
 

Скачать торрент Темная башня / The Dark Tower (Николай Арсель) [2017, ужасы, фантастика, фэнтези, боевик, приключения, вестерн, UHD BDRemux 2160p] [HEVC] DUB | Лицензия

 
Автор Сообщение

mikos

post 15-Апр-18 14:14

pic
Темная башня / The Dark Tower


«Есть и другие миры, кроме этих»


  • pic Год выпуска: 2017
  • pic Страна: США / Imagine Entertainment
  • pic Жанр: ужасы, фантастика, фэнтези, боевик, приключения, вестерн
  • pic Продолжительность: 01:34:45
  • pic Перевод: Дублированный (Лицензия BD CEE), Авторский (Л. Володарский)
  • pic Субтитры: Русские (forced, full), английские (full, SDH, SDH-Colored)



  • pic Режиссер: Николай Арсель


  • pic В ролях: Идрис Эльба, Мэттью МакКонахи, Том Тейлор, Клаудия Ким, Фрэн Кренц, Эбби Ли, Джеки Эрл Хейли, Кэтрин Уинник, Дэннис Хэйсбёрт, Майкл Барбиери



  • pic О фильме: Наш мир — не единственный из существующих. Заклятые враги Роланд Дискейн, последний из ордена стрелков, и Уолтер О’Дим, известный также как Человек в черном, ведут извечную борьбу. На кону — мифическая Темная Башня, последний оплот и надежда вселенной, без которой мир будет повержен в полный хаос и разрушение. Силам добра и зла суждено столкнуться в последней схватке, ведь Роланд Дискейн — единственный, кому под силу остановить Человека в черном, прежде чем тот разрушит Темную Башню.


  • pic Релиз от: arxivariys


  • pic Качество: UHD BDRemux (HDR) [2160][10- bit]
  • pic Формат: MKV
  • pic Видео кодек: H.265
  • pic Аудио кодек: AC3, DTS-HD MA,
  • pic Видео: HEVC/H.265, 3840x2160, (16:9), 55,1 Мбит/сек, 23.976 fps
  • pic Аудио 1: AC3, 6 ch, 640 kbps 48,0 KHz - Русский, Дубляж
  • pic Аудио 2: AC3, 6 ch, 448 kbps 48,0 KHz - Русский, Л. Володарский
  • pic Аудио 3: DTS-HD MA, 8 ch, ~3953 kbps 48,0 KHz- Английский


Рейтинг
pic pic
Mediainfo:
Общее
Уникальный идентификатор : 250924285025204697664931807859591720457 (0xBCC6426A07DB54C6A3F512D536E1AE09)
Полное имя : G:\HD\Тёмная башня.2017.2160p.UHD.BluRay.Remux.2160p.mkv
Формат : Matroska
Версия формата : Version 4 / Version 2
Размер файла : 39,8 Гбайт
Продолжительность : 1 ч. 34 м.
Общий поток : 60,2 Мбит/сек
Дата кодирования : UTC 2017-12-15 21:38:09
Программа кодирования : mkvmerge v18.0.0 ('Apricity') 64-bit
Библиотека кодирования : libebml v1.3.5 + libmatroska v1.4.8
Attachments : poster.jpg

Видео
Идентификатор : 1
Формат : HEVC
Формат/Информация : High Efficiency Video Coding
Профиль формата : Main [email protected]@High
Идентификатор кодека : V_MPEGH/ISO/HEVC
Продолжительность : 1 ч. 34 м.
Битрейт : 55,1 Мбит/сек
Ширина : 3840 пикселей
Высота : 2160 пикселей
Соотношение сторон : 16:9
Режим частоты кадров : Постоянный
Частота кадров : 23,976 (24000/1001) кадра/сек
Цветовое пространство : YUV
Субдискретизация насыщенности : 4:2:0 (Type 2)
Битовая глубина : 10 бит
Бит/(Пиксели*Кадры) : 0.277
Размер потока : 36,5 Гбайт (92%)
Язык : English
Default : Да
Forced : Нет
Цветовой диапазон : Limited
Основные цвета : BT.2020
Характеристики трансфера : PQ
Коэффициенты матрицы : BT.2020 non-constant
MasteringDisplay_ColorPrimaries : R: x=0.680000 y=0.320000, G: x=0.265000 y=0.690000, B: x=0.150000 y=0.060000, White point: x=0.312700 y=0.329000
MasteringDisplay_Luminance : min: 0.0050 cd/m2, max: 4000.0000 cd/m2
MaxCLL : 1542 cd/m2
MaxFALL : 555 cd/m2

Аудио #1
Идентификатор : 2
Формат : AC-3
Формат/Информация : Audio Coding 3
Идентификатор кодека : A_AC3
Продолжительность : 1 ч. 34 м.
Вид битрейта : Постоянный
Битрейт : 640 Кбит/сек
Каналы : 6 каналов
Расположение каналов : Front: L C R, Side: L R, LFE
Частота : 48,0 КГц
Частота кадров : 31,250 кадров/сек (1536 SPF)
Битовая глубина : 16 бит
Метод сжатия : С потерями
Размер потока : 434 Мбайт (1%)
Заголовок : Dub, Blu-Ray
Язык : Russian
ServiceKind/String : Complete Main
Default : Да
Forced : Нет

Аудио #2
Идентификатор : 3
Формат : AC-3
Формат/Информация : Audio Coding 3
Идентификатор кодека : A_AC3
Продолжительность : 1 ч. 34 м.
Вид битрейта : Постоянный
Битрейт : 448 Кбит/сек
Каналы : 6 каналов
Расположение каналов : Front: L C R, Side: L R, LFE
Частота : 48,0 КГц
Частота кадров : 31,250 кадров/сек (1536 SPF)
Битовая глубина : 16 бит
Метод сжатия : С потерями
Размер потока : 304 Мбайт (1%)
Заголовок : Л. Володарский
Язык : Russian
ServiceKind/String : Complete Main
Default : Нет
Forced : Нет

Аудио #3
Идентификатор : 4
Формат : DTS
Формат/Информация : Digital Theater Systems
Профиль формата : MA / Core
Идентификатор кодека : A_DTS
Продолжительность : 1 ч. 34 м.
Вид битрейта : Переменный / Постоянный
Битрейт : 3953 Кбит/сек / 1509 Кбит/сек
Каналы : 8 каналов / 6 каналов
Расположение каналов : Front: L C R, Side: L R, Back: L R, LFE / Front: L C R, Side: L R, LFE
Частота : 48,0 КГц
Частота кадров : 93,750 кадра/сек (512 SPF)
Битовая глубина : 24 бит
Метод сжатия : Без потерь / Lossy
Размер потока : 2,62 Гбайт (7%)
Язык : English
Default : Нет
Forced : Нет

Текст #1
Идентификатор : 5
Формат : UTF-8
Идентификатор кодека : S_TEXT/UTF8
Идентификатор кодека/Информация : UTF-8 Plain Text
Продолжительность : 28 м. 36 с.
Битрейт : 2 бит/сек
ElementCount : 9
Размер потока : 523 байт (0%)
Заголовок : forced
Язык : Russian
Default : Да
Forced : Нет

Текст #2
Идентификатор : 6
Формат : UTF-8
Идентификатор кодека : S_TEXT/UTF8
Идентификатор кодека/Информация : UTF-8 Plain Text
Продолжительность : 1 ч. 26 м.
Битрейт : 62 бит/сек
ElementCount : 888
Размер потока : 39,2 Кбайт (0%)
Заголовок : full
Язык : Russian
Default : Нет
Forced : Нет

Текст #3
Идентификатор : 7
Формат : UTF-8
Идентификатор кодека : S_TEXT/UTF8
Идентификатор кодека/Информация : UTF-8 Plain Text
Продолжительность : 1 ч. 25 м.
Битрейт : 40 бит/сек
ElementCount : 891
Размер потока : 25,2 Кбайт (0%)
Заголовок : full
Язык : English
Default : Нет
Forced : Нет

Текст #4
Идентификатор : 8
Формат : UTF-8
Идентификатор кодека : S_TEXT/UTF8
Идентификатор кодека/Информация : UTF-8 Plain Text
Продолжительность : 1 ч. 33 м.
Битрейт : 41 бит/сек
ElementCount : 1055
Размер потока : 28,5 Кбайт (0%)
Заголовок : SDH
Язык : English
Default : Нет
Forced : Нет

Текст #5
Идентификатор : 9
Формат : UTF-8
Идентификатор кодека : S_TEXT/UTF8
Идентификатор кодека/Информация : UTF-8 Plain Text
Продолжительность : 1 ч. 33 м.
Битрейт : 54 бит/сек
ElementCount : 1055
Размер потока : 36,9 Кбайт (0%)
Заголовок : SDH-Colored
Язык : English
Default : Нет
Forced : Нет

Меню
00:00:00.000 : en:Chapter 1
00:05:51.643 : en:Chapter 2
00:10:36.094 : en:Chapter 3
00:16:33.618 : en:Chapter 4
00:21:54.897 : en:Chapter 5
00:25:35.534 : en:Chapter 6
00:31:01.985 : en:Chapter 7
00:36:25.183 : en:Chapter 8
00:40:49.822 : en:Chapter 9
00:46:02.134 : en:Chapter 10
00:53:18.404 : en:Chapter 11
00:58:42.853 : en:Chapter 12
01:03:51.119 : en:Chapter 13
01:10:37.650 : en:Chapter 14
01:15:53.174 : en:Chapter 15
01:21:15.204 : en:Chapter 16
Trailer
Скриншоты


pic


Время раздачи:с 4 до 20 мск
.2017.2160p.UHD.BluRay.Remux.2160p.mkv.torrent
 ЗОЛОТАЯ РАЗДАЧА! СКАЧАННОЕ НЕ ЗАСЧИТЫВАЕТСЯ! 
Вечный
Трекер: Зарегистрирован

magnet ссылка

 


Скачать .torrent

100 KB

Статус: проверено (by Snowden в 15-Апр-18 14:18)
Зарегистрирован: 15-Апр-18 14:14
Скачан: 63 раза
Размер: 39.81 GB | 
Поблагодарили:
Скачать Темная башня / The Dark Tower (Николай Арсель) [2017, ужасы, фантастика, фэнтези, боевик, приключения, вестерн, UHD BDRemux 2160p] [HEVC] DUB | Лицензия торрент
 


Похожие раздачи

Snowden

post 15-Апр-18 14:20 (спустя 5 минут)

Релиз от: arxivariys
По началу прочитал "ванус" art33

Текущее время: 17-Окт 21:18

Часовой пояс: GMT + 3



Вы не можете начинать темы
Вы не можете отвечать на сообщения
Вы не можете редактировать свои сообщения
Вы не можете удалять свои сообщения
Вы не можете голосовать в опросах
Вы не можете прикреплять файлы к сообщениям
Вы не можете скачивать файлы