Loading...
Error
 

Скачать торрент Тихоокеанский рубеж 2 / Pacific Rim Uprising (Стивен С. ДеНайт) [2018 г., фантастика, боевик, приключения, BDRip 1080p] DUB [iTunes] Вертикальная анаморфная стереопара

 
Автор Сообщение

Snowden

post 17-Апр-18 04:01


Тихоокеанский рубеж 2 / Pacific Rim Uprising
«Rise up»

pic
Год выхода: 2018
Страна: США, Китай, Великобритания, Япония
Жанр: фантастика, боевик, приключения
Продолжительность: 01:50:42
Перевод: Профессиональный (полное дублирование) | iTunes
Субтитры: (см. спойлер ниже)

Режиссер: Стивен С. ДеНайт
В ролях: Скотт Иствуд, Адриа Архона, Цзин Тянь, Джон Бойега, Чарли Дэй, Ринко Кикути, Берн Горман, Дастин Клер, Каран Брэр, Ник Е. Тарабэй
О фильме: Команда пилотируемых роботов-защитников остановила вторжение гигантских инопланетных монстров. Великая битва за Тихоокеанский рубеж ознаменовала новую главу в истории человечества. Однако война только начинается…

Пришло время нового поколения отстаивать своё право на Землю.

Качество: BDRip 1080p
Формат: mkv
Формат 3D: Half OverUnder / Вертикальная анаморфная стереопара
Порядок ракурсов: Левый ракурс первый
Видео кодек: AVC
Аудио кодек: AC3
Видео: 1920х1080, 23.976 fps, 16 Мбит/с
Аудио #1: 384 kb/s, 6 ch, 48.0 KHz [Russian]
Аудио #2: 192 kb/s, 2 ch, 48.0 KHz [Ukrainian]
Аудио #3: 448 kb/s, 6 ch, 48.0 KHz [English]
MediaInfo

Код:

General
Unique ID : 181681563863628980903306538756531921668 (0x88AE98AEE724A346891B9AE17735A304)
Complete name : D:PacificRim2(2018)3D-halfOU(Ash61)iTunesPacificRim2(2018)3D-halfOU(Ash61)iTunes.mkv
Format : Matroska
Format version : Version 2
File size : 13.2 GiB
Duration : 1h 50mn
Overall bit rate : 17.0 Mbps
Movie name : Тихоокеанский рубеж 2 / Pacific Rim: Uprising (2018) in 3D
Encoded date : UTC 2018-06-14 09:34:51
Writing application : mkvmerge v5.8.0 ('No Sleep / Pillow') built on Sep 2 2012 15:37:04
Writing library : libebml v1.2.3 + libmatroska v1.3.0

Video
ID : 1
Format : AVC
Format/Info : Advanced Video Codec
Format profile : [email protected]
Format settings, CABAC : Yes
Format settings, ReFrames : 4 frames
Codec ID : V_MPEG4/ISO/AVC
Duration : 1h 50mn
Bit rate : 16.0 Mbps
Width : 1 920 pixels
Height : 1 080 pixels
Display aspect ratio : 16:9
Frame rate mode : Constant
Frame rate : 23.976 (24000/1001) fps
Color space : YUV
Chroma subsampling : 4:2:0
Bit depth : 8 bits
Scan type : Progressive
Bits/(Pixel*Frame) : 0.322
Stream size : 12.1 GiB (92%)
Title : BDRip by Ash61
Writing library : x264 core 146 r2538 121396c
Encoding settings : cabac=1 / ref=4 / deblock=1:-3:-3 / analyse=0x3:0x113 / me=umh / subme=10 / psy=1 / psy_rd=1.00:0.00 / mixed_ref=1 / me_range=32 / chroma_me=1 / trellis=2 / 8x8dct=1 / cqm=0 / deadzone=21,11 / fast_pskip=0 / chroma_qp_offset=-2 / threads=12 / lookahead_threads=2 / sliced_threads=0 / nr=0 / decimate=0 / interlaced=0 / bluray_compat=0 / constrained_intra=0 / bframes=8 / b_pyramid=2 / b_adapt=2 / b_bias=0 / direct=3 / weightb=1 / open_gop=0 / weightp=2 / keyint=250 / keyint_min=23 / scenecut=40 / intra_refresh=0 / rc_lookahead=60 / rc=2pass / mbtree=0 / bitrate=16000 / ratetol=1.0 / qcomp=0.70 / qpmin=0 / qpmax=69 / qpstep=4 / cplxblur=20.0 / qblur=0.5 / vbv_maxrate=40000 / vbv_bufsize=30000 / nal_hrd=none / filler=0 / frame-packing=4 / ip_ratio=1.40 / pb_ratio=1.30 / aq=1:0.70
Language : English
Default : Yes
Forced : No

Audio #1
ID : 2
Format : AC-3
Format/Info : Audio Coding 3
Mode extension : CM (complete main)
Format settings, Endianness : Big
Codec ID : A_AC3
Duration : 1h 50mn
Bit rate mode : Constant
Bit rate : 384 Kbps
Channel(s) : 6 channels
Channel positions : Front: L C R, Side: L R, LFE
Sampling rate : 48.0 KHz
Frame rate : 31.250 fps (1536 spf)
Compression mode : Lossy
Stream size : 304 MiB (2%)
Title : Дубляж - iTunes
Language : Russian
Default : Yes
Forced : No

Audio #2
ID : 3
Format : AC-3
Format/Info : Audio Coding 3
Mode extension : CM (complete main)
Format settings, Endianness : Big
Codec ID : A_AC3
Duration : 1h 50mn
Bit rate mode : Constant
Bit rate : 192 Kbps
Channel(s) : 2 channels
Channel positions : Front: L R
Sampling rate : 48.0 KHz
Frame rate : 31.250 fps (1536 spf)
Compression mode : Lossy
Stream size : 152 MiB (1%)
Title : Дубляж - Line (моно)
Language : Ukrainian
Default : No
Forced : No

Audio #3
ID : 4
Format : AC-3
Format/Info : Audio Coding 3
Mode extension : CM (complete main)
Format settings, Endianness : Big
Codec ID : A_AC3
Duration : 1h 50mn
Bit rate mode : Constant
Bit rate : 448 Kbps
Channel(s) : 6 channels
Channel positions : Front: L C R, Side: L R, LFE
Sampling rate : 48.0 KHz
Frame rate : 31.250 fps (1536 spf)
Compression mode : Lossy
Stream size : 355 MiB (3%)
Title : Original
Language : English
Default : No
Forced : No

Text #1
ID : 5
Format : UTF-8
Codec ID : S_TEXT/UTF8
Codec ID/Info : UTF-8 Plain Text
Title : Форсированные
Language : Russian
Default : Yes
Forced : No

Text #2
ID : 6
Format : UTF-8
Codec ID : S_TEXT/UTF8
Codec ID/Info : UTF-8 Plain Text
Title : Полные
Language : Russian
Default : No
Forced : No

Text #3
ID : 7
Format : UTF-8
Codec ID : S_TEXT/UTF8
Codec ID/Info : UTF-8 Plain Text
Title : Форсированные
Language : Ukrainian
Default : No
Forced : No

Text #4
ID : 8
Format : UTF-8
Codec ID : S_TEXT/UTF8
Codec ID/Info : UTF-8 Plain Text
Title : Full
Language : English
Default : No
Forced : No

Text #5
ID : 9
Format : UTF-8
Codec ID : S_TEXT/UTF8
Codec ID/Info : UTF-8 Plain Text
Title : SDH
Language : English
Default : No
Forced : No

Menu
00:00:00.000 : :1
00:06:54.872 : :2
00:13:05.366 : :3
00:15:51.075 : :4
00:20:36.359 : :5
00:24:49.695 : :6
00:31:08.240 : :7
00:37:56.065 : :8
00:43:37.947 : :9
00:49:01.938 : :10
00:53:40.925 : :11
00:58:12.030 : :12
01:04:45.005 : :13
01:09:25.536 : :14
01:14:36.721 : :15
01:22:53.426 : :16
01:29:02.545 : :17
01:33:10.585 : :18
01:38:07.381 : :19
01:40:55.047 : :20
Субтитры
Вшитые (softsub)
  • Русские Форсированные (включены по умолчанию)
  • Русские Полные
  • Украинские Форсированные
  • English Full
  • English SDH


Внешние (UTF-8)
  • Русские Форсированные (включены по умолчанию)
  • Русские Полные
  • Украинские Форсированные


Русские субтитры в кодировке UTF8 - https://cloud.mail.ru/public/MkWJ/sV2b9BLyE
Рейтинг
pic pic pic
Доп. информация
Бюджет: $150 000 000
Сборы в США: $59 185 715
Сборы в мире: + $230 875 582 = $290 061 297
Сборы в России: $11 075 577

Дата мировой премьеры: 21 марта 2018
Дата российской премьеры: 22 марта 2018, «UPI»
Релиз на DVD: 23 июля 2018, «НД Плэй»
Релиз на Blu-Ray: 23 июля 2018, «НД Плэй»
Скриншоты
Для оценки 3Д - Анимированные скрины
PacificRim2(2018)3D-halfOU(Ash61)iTunes.torrent
 СЕРЕБРЯНАЯ РАЗДАЧА! СКАЧАННОЕ ЗАСЧИТЫВАЕТСЯ ТОЛЬКО НАПОЛОВИНУ! 
Вечный
Трекер: Зарегистрирован

magnet ссылка

 


Скачать .torrent

66 KB

Статус: проверено (by Snowden в 15-Июн-18 13:49)
Зарегистрирован: 15-Июн-18 13:49
Скачан: 141 раз
Размер: 13.16 GB | 
Поблагодарили:
Скачать Тихоокеанский рубеж 2 / Pacific Rim Uprising (Стивен С. ДеНайт) [2018 г., фантастика, боевик, приключения, BDRip 1080p] DUB [iTunes] Вертикальная анаморфная стереопара торрент
 


Похожие раздачи

Текущее время: 17-Окт 21:07

Часовой пояс: GMT + 3



Вы не можете начинать темы
Вы не можете отвечать на сообщения
Вы не можете редактировать свои сообщения
Вы не можете удалять свои сообщения
Вы не можете голосовать в опросах
Вы не можете прикреплять файлы к сообщениям
Вы не можете скачивать файлы