Loading...
Error
 

Скачать торрент Недруги / Hostiles (Скотт Купер) [2017 г., Драма, Приключения, Вестерн, BDRip 1080p] DUB | iTunes

 
Автор Сообщение

mikos

post 17-Апр-18 12:34

pic
pic
Недруги / Hostiles


«We are all hostiles»


  • pic Год выпуска: 2017
  • pic Страна: США, Grisbi Productions, Le, Waypoint Entertainment
  • pic Жанр: Драма, Приключения, Вестерн
  • pic Продолжительность: 02:14:18
  • pic Перевод: Дублированный (iTunes),
  • pic Субтитры: Русские (форсированные), английские



  • pic Режиссер: Скотт Купер


  • pic В ролях: Кристиан Бэйл, Розамунд Пайк, Уэс Стьюди, Рори Кокрейн, Джесси Племонс, Джонатан Мэйджерс, Бен Фостер, Адам Бич, К’Орианка Килчер, Тимоти Шаламе


  • pic О фильме: Когда на твоих глазах льется кровь, когда ты вынужден убивать, ты превращаешься в зверя... После долгих лет войны он дышал злобой, проклинал краснокожих, в каждом из них он видел врага. На исходе войны капитан Блокер получает приказ доставить на родину в Монтану умирающего вождя по кличке Желтый Ястреб. В цепях и кандалах он ведет семью индейцев через земли, где обитают враждебные племена и скрываются беглые преступники, где за каждым камнем поджидает смертельная опасность. Где-то на пути к отряду Блокера пристает обезумевшая от горя вдова, на глазах которой команчи убили ее детей. Эта встреча меняет всё...


  • pic Релиз от: селезень


  • pic Качество: BDRip (1080p)
  • pic Формат: MKV
  • pic Видео кодек: AVC
  • pic Аудио кодек: AC3, DTS,
  • pic Видео: 1920x804, 17.2 Мбит/с, 23,976 кадра/сек
  • pic Аудио 1: AC3, 6 ch, 384 kbps 48,0 KHz - Русский, Дубляж
  • pic Аудио 2: DTS, 6 ch, 1509 kbps 48,0 KHz - Английский


Рейтинг
pic pic
Mediainfo:
Общее
Уникальный идентификатор : 168420768757434766167066209656586352455 (0x7EB4A90199A2B72FDDBE7B344483B747)
Полное имя : D:\Торрент\Hostiles.2017.BDRip.1080p.ExKinoRay.mkv
Формат : Matroska
Версия формата : Version 4 / Version 2
Размер файла : 17,9 Гбайт
Продолжительность : 2 ч. 14 м.
Общий поток : 19,1 Мбит/сек
Название фильма : Hostiles 2017 from ExKinoRay
Дата кодирования : UTC 2018-04-18 06:48:20
Программа кодирования : mkvmerge v22.0.0 ('At The End Of The World') 64-bit
Библиотека кодирования : libebml v1.3.5 + libmatroska v1.4.8

Видео
Идентификатор : 1
Формат : AVC
Формат/Информация : Advanced Video Codec
Профиль формата : [email protected]
Настройки формата : CABAC / 5 Ref Frames
Параметр CABAC формата : Да
Параметр RefFrames формата : 5 кадров
Идентификатор кодека : V_MPEG4/ISO/AVC
Продолжительность : 2 ч. 14 м.
Битрейт : 17,2 Мбит/сек
Ширина : 1920 пикселей
Высота : 804 пикселя
Соотношение сторон : 2,40:1
Режим частоты кадров : Постоянный
Частота кадров : 23,976 (24000/1001) кадра/сек
Цветовое пространство : YUV
Субдискретизация насыщенности : 4:2:0
Битовая глубина : 8 бит
Тип развёртки : Прогрессивная
Бит/(Пиксели*Кадры) : 0.465
Размер потока : 16,1 Гбайт (90%)
Библиотека кодирования : x264 core 155 r2901 7d0ff22
Настройки программы : cabac=1 / ref=5 / deblock=1:-3:-3 / analyse=0x3:0x133 / me=umh / subme=11 / psy=1 / psy_rd=1.05:0.00 / mixed_ref=1 / me_range=64 / chroma_me=1 / trellis=2 / 8x8dct=1 / cqm=0 / deadzone=21,11 / fast_pskip=0 / chroma_qp_offset=-2 / threads=12 / lookahead_threads=3 / sliced_threads=0 / nr=0 / decimate=0 / interlaced=0 / bluray_compat=0 / constrained_intra=0 / bframes=16 / b_pyramid=2 / b_adapt=2 / b_bias=0 / direct=3 / weightb=1 / open_gop=0 / weightp=2 / keyint=250 / keyint_min=24 / scenecut=40 / intra_refresh=0 / rc_lookahead=250 / rc=crf / mbtree=0 / crf=15.9 / qcomp=0.65 / qpmin=0 / qpmax=69 / qpstep=4 / vbv_maxrate=62500 / vbv_bufsize=78125 / crf_max=0.0 / nal_hrd=none / filler=0 / ip_ratio=1.30 / pb_ratio=1.20 / aq=3:0.78 / zones=183220,193200,crf=22
Язык : English
Default : Да
Forced : Нет

Аудио #1
Идентификатор : 2
Формат : AC-3
Формат/Информация : Audio Coding 3
Идентификатор кодека : A_AC3
Продолжительность : 2 ч. 14 м.
Вид битрейта : Постоянный
Битрейт : 384 Кбит/сек
Каналы : 6 каналов
Расположение каналов : Front: L C R, Side: L R, LFE
Частота : 48,0 КГц
Частота кадров : 31,250 кадров/сек (1536 SPF)
Битовая глубина : 16 бит
Метод сжатия : С потерями
Размер потока : 368 Мбайт (2%)
Заголовок : iTunes
Язык : Russian
ServiceKind/String : Complete Main
Default : Да
Forced : Да

Аудио #2
Идентификатор : 3
Формат : DTS
Формат/Информация : Digital Theater Systems
Идентификатор кодека : A_DTS
Продолжительность : 2 ч. 14 м.
Вид битрейта : Постоянный
Битрейт : 1509 Кбит/сек
Каналы : 6 каналов
Расположение каналов : Front: L C R, Side: L R, LFE
Частота : 48,0 КГц
Частота кадров : 93,750 кадра/сек (512 SPF)
Битовая глубина : 24 бит
Метод сжатия : С потерями
Размер потока : 1,42 Гбайт (8%)
Заголовок : Original
Язык : English
Default : Нет
Forced : Нет

Текст #1
Идентификатор : 4
Формат : UTF-8
Идентификатор кодека : S_TEXT/UTF8
Идентификатор кодека/Информация : UTF-8 Plain Text
Продолжительность : 1 ч. 37 м.
Битрейт : 5 бит/сек
ElementCount : 84
Размер потока : 3,73 Кбайт (0%)
Заголовок : Forced
Язык : Russian
Default : Да
Forced : Да

Текст #2
Идентификатор : 5
Формат : UTF-8
Идентификатор кодека : S_TEXT/UTF8
Идентификатор кодека/Информация : UTF-8 Plain Text
Продолжительность : 2 ч. 3 м.
Битрейт : 24 бит/сек
ElementCount : 739
Размер потока : 21,9 Кбайт (0%)
Заголовок : Full
Язык : English
Default : Нет
Forced : Нет

Меню
00:00:00.000 : en:00:00:00.000
00:08:18.540 : en:00:08:18.540
00:20:32.064 : en:00:20:32.064
00:25:28.819 : en:00:25:28.819
00:34:48.336 : en:00:34:48.336
00:40:23.546 : en:00:40:23.546
00:51:40.597 : en:00:51:40.597
01:00:18.615 : en:01:00:18.615
01:08:17.176 : en:01:08:17.176
01:14:52.071 : en:01:14:52.071
01:25:29.249 : en:01:25:29.249
01:34:35.461 : en:01:34:35.461
01:43:05.513 : en:01:43:05.513
01:50:45.973 : en:01:50:45.973
01:54:10.677 : en:01:54:10.677
02:05:21.806 : en:02:05:21.806
Trailer
Скриншоты


pic


Время раздачи:с 4 до 20 мск
Hostiles.2017.BDRip.1080p.ExKinoRay.mkv.torrent
 СЕРЕБРЯНАЯ РАЗДАЧА! СКАЧАННОЕ ЗАСЧИТЫВАЕТСЯ ТОЛЬКО НАПОЛОВИНУ! 
Вечный
Трекер: Зарегистрирован

magnet ссылка

 


Скачать .torrent

90 KB

Статус: проверено (by Snowden в 18-Апр-18 17:48)
Зарегистрирован: 18-Апр-18 17:42
Скачан: 1311 раз
Размер: 17.92 GB | 
Поблагодарили:
Скачать Недруги / Hostiles (Скотт Купер) [2017 г., Драма, Приключения, Вестерн, BDRip 1080p] DUB | iTunes торрент
 


Похожие раздачи

VOLUMEUP

post 17-Апр-18 12:49 (спустя 15 минут)

Хоть и люблю вестерны, но этот фильм все не осилил...

mikos

post 18-Апр-18 17:43 (спустя 1 день 4 часа)

Торрент обновлен! Улучшено качество видео.

CrazySpb

post 18-Апр-18 18:49 (спустя 1 час 6 минут)

Хороший фильм

mikos

post 18-Апр-18 19:15 (спустя 26 минут)

Качество видео тоже улучшилось по сравнению со старым релизом!

ScorpionBSG

post 19-Апр-18 00:32 (спустя 5 часов)

Очень достойное, сильное кино, со смыслом и толком, рекомендую!!!
Получил огромное удовольствие от просмотра, спасибо за отменное качество. clap yes

mikos

post 19-Апр-18 15:32 (спустя 14 часов)

На фестивалях точно бы потянул на медаль!

плакса2012

post 20-Апр-18 18:27 (спустя 1 день 2 часа)

На обложке надписи актеров не соответствуют самим актерам. Че-та перепутано facepalm

Snowden

post 20-Апр-18 18:39 (спустя 11 минут)

плакса2012
Так пойдёт?

mikos

post 21-Апр-18 19:44 (спустя 1 день 1 час)

Ц плакса2012 писал(а):

На обложке надписи актеров не соответствуют самим актерам. Че-та перепутано facepalm
Там и на официальном в 4к, так же попутано
Скриншоты

qder

post 02-Май-18 11:40 (спустя 10 дней)

Игра актеров на высшем уровне! Необычный сюжет и море слез

mikos

post 09-Май-18 16:47 (спустя 7 дней)

Ц qder писал(а):

Игра актеров на высшем уровне! Необычный сюжет и море слез
Смотреть и переживать!

post 12-Июл-18 15:40 (спустя 2 месяца 2 дня)

Топик был перенесен из форума BDRip / Full HD (720p / 1080p / Ultra HD (4K)) в форум Драма


Snowden
 

Текущее время: 17-Окт 21:07

Часовой пояс: GMT + 3



Вы не можете начинать темы
Вы не можете отвечать на сообщения
Вы не можете редактировать свои сообщения
Вы не можете удалять свои сообщения
Вы не можете голосовать в опросах
Вы не можете прикреплять файлы к сообщениям
Вы не можете скачивать файлы