Loading...
Error
 

Скачать торрент Кавалерия / 12 Strong (Николай Фульси / Nicolai Fuglsig) [2018, боевик, драма, военный, WEB-DL 1080p] MVO [HDrezka Studio]

 
Автор Сообщение

S.T.A.L.K.E.R.2

post 17-Апр-18 14:59

Кавалерия
12 Strong

«11 сентября 2001: Мир замер в страхе. 12 сентября 2001: Они вызвались бороться. Рассекреченная история солдат кавалерии»

pic


pic
Страна: США
Жанр: боевик, драма, военный, история

Год выпуска: 2018
Продолжительность: 02:10:00

Перевод: Любительский (многоголосый, закадровый) [HDrezka Studio]
Субтитры: английские (полные, SDH, SDH цветные)
Оригинальная аудиодорожка: английский

Режиссер: Николай Фульси / Nicolai Fuglsig

В ролях: Крис Хемсворт, Майкл Шеннон, Майкл Пенья, Навид Негабан, Треванте Роудс, Джофф Стульц, Тэд Лакинбилл, Остин Хеберт, Остин Стоуэлл, Бен О’Тул, Кеннет Миллер, Кенни Шерд

Описание:
Их бросили в пекло после 11 сентября, когда мир раскололся на «до» и «после». Именно им предстояло на передовой бороться с врагом, не знающим пощады. На чужой земле преимущество у всадников - этому их научили нежданные союзники. Вместе они попытаются удержать мир от погружения в хаос.

Автор релиза: stalkerok
Дорожка HDrezka Studio извлечена с их сайта и оставлена в исходном виде.
Релиз без рекламы!

Сэмпл

Качество видео: WEB-DL 1080p [12.Strong.2018.1080p.WEB-DL.H264.AC3-EVO]
Формат видео: MKV
Видео кодек: AVC
Аудио кодек: AAC, AC3
Видео: AVC, 4535 Кбит/сек, 1920x800 (2.40:1), 23,976 кадр/сек
Аудио №1: AAC, 83 Кбит/сек, 48 КГц, 2.0 - русский
Аудио №2: AC3, 384 Кбит/сек, 48 КГц, 5.1 - английский
Навигация по главам: есть
Доп. информация
pic pic
MediaInfo
General
Unique ID : 216334434941112002975264489350522736591 (0xA2C07F22D99623DFAC4634F3B3E40FCF)
Complete name : V:\!Rips\12 Strong (2018)\12.Strong.2018.1080p.WEB-DL.Rus.Eng.H.264.EVO-stalkerok.new-team.mkv
Format : Matroska
Format version : Version 4 / Version 2
File size : 4.54 GiB
Duration : 2 h 10 min
Overall bit rate : 5 000 kb/s
Movie name : 12 Strong (2018) - release by stalkerok
Encoded date : UTC 2018-04-16 22:41:07
Writing application : mkvmerge v8.6.1 ('Flying') 64bit
Writing library : libebml v1.3.3 + libmatroska v1.4.4

Video
ID : 1
Format : AVC
Format/Info : Advanced Video Codec
Format profile : [email protected]
Format settings, CABAC : Yes
Format settings, ReFrames : 5 frames
Codec ID : V_MPEG4/ISO/AVC
Duration : 2 h 9 min
Bit rate : 4 536 kb/s
Width : 1 920 pixels
Height : 800 pixels
Display aspect ratio : 2.40:1
Frame rate mode : Constant
Frame rate : 23.976 (24000/1001) FPS
Color space : YUV
Chroma subsampling : 4:2:0
Bit depth : 8 bits
Scan type : Progressive
Bits/(Pixel*Frame) : 0.123
Stream size : 4.11 GiB (91%)
Title : 12 Strong (2018)
Language : English
Default : Yes
Forced : No
Color range : Limited
Color primaries : BT.709
Transfer characteristics : BT.709
Matrix coefficients : BT.709

Audio #1
ID : 2
Format : AAC
Format/Info : Advanced Audio Codec
Format profile : LC
Codec ID : A_AAC
Duration : 2 h 10 min
Bit rate : 83.3 kb/s
Channel(s) : 2 channels
Channel positions : Front: L R
Sampling rate : 48.0 kHz
Frame rate : 46.875 FPS (1024 spf)
Compression mode : Lossy
Stream size : 77.4 MiB (2%)
Title : HDrezka Studio
Language : Russian
Default : Yes
Forced : No

Audio #2
ID : 3
Format : AC-3
Format/Info : Audio Coding 3
Mode extension : CM (complete main)
Format settings, Endianness : Big
Codec ID : A_AC3
Duration : 2 h 9 min
Bit rate mode : Constant
Bit rate : 384 kb/s
Channel(s) : 6 channels
Channel positions : Front: L C R, Side: L R, LFE
Sampling rate : 48.0 kHz
Frame rate : 31.250 FPS (1536 spf)
Compression mode : Lossy
Stream size : 357 MiB (8%)
Language : English
Default : No
Forced : No

Text #1
ID : 4
Format : UTF-8
Codec ID : S_TEXT/UTF8
Codec ID/Info : UTF-8 Plain Text
Duration : 2 h 0 min
Bit rate : 58 b/s
Count of elements : 1636
Stream size : 51.7 KiB (0%)
Language : English
Default : No
Forced : No

Text #2
ID : 5
Format : UTF-8
Codec ID : S_TEXT/UTF8
Codec ID/Info : UTF-8 Plain Text
Duration : 2 h 0 min
Bit rate : 66 b/s
Count of elements : 1835
Stream size : 58.4 KiB (0%)
Title : SDH
Language : English
Default : No
Forced : No

Text #3
ID : 6
Format : UTF-8
Codec ID : S_TEXT/UTF8
Codec ID/Info : UTF-8 Plain Text
Duration : 2 h 0 min
Bit rate : 104 b/s
Count of elements : 1835
Stream size : 92.2 KiB (0%)
Title : SDH Colored
Language : English
Default : No
Forced : No

Menu
00:00:00.000 : en:1
00:12:41.000 : en:2
00:21:53.000 : en:3
00:32:56.000 : en:4
00:44:03.000 : en:5
00:56:21.000 : en:6
01:10:04.000 : en:7
01:21:03.000 : en:8
01:27:28.000 : en:9
01:41:19.000 : en:10
01:50:15.000 : en:11
02:01:18.000 : en:12
Скриншоты
pic
12.Strong.2018.1080p.WEB-DL.Rus.Eng.H.264.EVO-stalkerok.new-team.mkv.torrent
Трекер: Зарегистрирован

magnet ссылка

 


Скачать .torrent

12 KB

Статус: проверено (by Арт33 в 17-Апр-18 18:32)
Зарегистрирован: 17-Апр-18 14:59
Скачан: 111 раз
Размер: 4.54 GB | 
Поблагодарили:
Скачать Кавалерия / 12 Strong (Николай Фульси / Nicolai Fuglsig) [2018, боевик, драма, военный, WEB-DL 1080p] MVO [HDrezka Studio] торрент
 


Похожие раздачи

post 12-Июл-18 15:05 (спустя 2 месяца 25 дней)

Топик был перенесен из форума WEB-DL / WEB-DLRip в форум Боевик


Snowden
 

Текущее время: 17-Окт 21:11

Часовой пояс: GMT + 3



Вы не можете начинать темы
Вы не можете отвечать на сообщения
Вы не можете редактировать свои сообщения
Вы не можете удалять свои сообщения
Вы не можете голосовать в опросах
Вы не можете прикреплять файлы к сообщениям
Вы не можете скачивать файлы