Loading...
Error
 

Скачать торрент Сувенир из Одессы (1 Сезон / 1-12 Серий из 12) (Олег Туранский) [2018, Драма, криминал, WEB-DL 1080p]

 
Автор Сообщение

bakc

post 17-Апр-18 15:05

Сувенир из Одессы

pic
Год выпуска: 2018
Страна: Украина, Sisters Production
Жанр: Драма, криминал
Продолжительность: 12 х ~ 00:42:00
Субтитры: Отсутствуют
Перевод: Не требуется
Сезон: 1
Серии: 12 из 12
Режиссёры: Олег Туранский
В ролях: Ольга Винниченко, Александр Соколовский, Лариса Удовиченко, Станислав Боклан, Дмитрий Суржиков, Дмитрий Сова, Марк Дробот, Артем Алексеев, Александр Кобзарь, Андрей Доманский, Евгений Никишин
Описание: История любви Лизы и Матвея, которая разворачивается в Одессе в период революции 1917 года. Главным героям предстоит встретиться с легендарными личностями того времени — королем налетчиков Михаилом Винницким, известным как Мишка Япончик, атаманом Григорием Котовским и генералом Алексеем Алмазовым. Персонажей связывает между собой некий сувенир, который обладает магическими свойствами…
Качество: WEB-DL 1080p
Формат: Matroska
Видео кодек: AVC
Аудио кодек: AC3
Видео: AVC, 1920x1080 (16:9), 3913 kbps (0.075 b/px), 25.00 fps
Аудио: AC3, 192 kbps (CBR), 48.0 KHz (16 bits), 2 ch



> MediaInfo

Код:

General
Unique ID                                : 239262875620427595293521471499494343979 (0xB4005A8A5D082B75A738E1C60E2DC52B)
Complete name                            : D:\Suvenir.iz.Odessy.2018.WEB-DL.(1080p)\Suvenir.iz.Odessy.e01.2018.WEB-DL.(1080p).mkv
Format                                   : Matroska
Format version                           : Version 4 / Version 2
File size                                : 1.32 GiB
Duration                                 : 45mn 11s
Overall bit rate                         : 4 188 Kbps
Movie name                               : Suvenir.iz.Odessy.e01.2018.WEB-DL.(1080p).Getty
Encoded date                             : UTC 2018-03-19 20:49:00
Writing application                      : mkvmerge v7.8.0 ('River Man') 32bit built on Mar 27 2015 16:18:02
Writing library                          : libebml v1.3.1 + libmatroska v1.4.2
DURATION                                 : 00:45:11.872000000
NUMBER_OF_FRAMES                         : 84746
NUMBER_OF_BYTES                          : 65084928
_STATISTICS_WRITING_APP                  : mkvmerge v7.8.0 ('River Man') 32bit built on Mar 27 2015 16:18:02
_STATISTICS_WRITING_DATE_UTC             : 2018-03-19 20:49:00
_STATISTICS_TAGS                         : BPS DURATION NUMBER_OF_FRAMES NUMBER_OF_BYTES

Video
ID                                       : 1
Format                                   : AVC
Format/Info                              : Advanced Video Codec
Format profile                           : [email protected]
Format settings, CABAC                   : Yes
Format settings, ReFrames                : 3 frames
Codec ID                                 : V_MPEG4/ISO/AVC
Duration                                 : 45mn 11s
Bit rate                                 : 3 912 Kbps
Width                                    : 1 920 pixels
Height                                   : 1 080 pixels
Display aspect ratio                     : 16:9
Frame rate mode                          : Constant
Frame rate                               : 25.000 fps
Color space                              : YUV
Chroma subsampling                       : 4:2:0
Bit depth                                : 8 bits
Scan type                                : Progressive
Bits/(Pixel*Frame)                       : 0.075
Stream size                              : 1.24 GiB (93%)
Default                                  : Yes
Forced                                   : No

Audio
ID                                       : 2
Format                                   : AC-3
Format/Info                              : Audio Coding 3
Mode extension                           : CM (complete main)
Format settings, Endianness              : Big
Codec ID                                 : A_AC3
Duration                                 : 45mn 11s
Bit rate mode                            : Constant
Bit rate                                 : 192 Kbps
Channel(s)                               : 2 channels
Channel positions                        : Front: L R
Sampling rate                            : 48.0 KHz
Bit depth                                : 16 bits
Compression mode                         : Lossy
Stream size                              : 62.1 MiB (5%)
Default                                  : Yes
Forced                                   : No
> Рейтинг
pic
> Скриншоты

Suvenir.iz.Odessy.2018.WEB-DL.torrent
 СЕРЕБРЯНАЯ РАЗДАЧА! СКАЧАННОЕ ЗАСЧИТЫВАЕТСЯ ТОЛЬКО НАПОЛОВИНУ! 
Вечный
Трекер: Зарегистрирован

magnet ссылка

 


Скачать .torrent

20 KB

Статус: проверено (by Strelok_38 в 17-Апр-18 15:44)
Зарегистрирован: 17-Апр-18 15:05
Скачан: 36 раз
Размер: 15.22 GB | 
Поблагодарили:
Скачать Сувенир из Одессы (1 Сезон / 1-12 Серий из 12) (Олег Туранский) [2018, Драма, криминал, WEB-DL 1080p] торрент
 


Похожие раздачи

post 29-Авг-18 15:49 (спустя 4 месяца 12 дней)

Топик был перенесен из форума WEB DL / HDTV 1080 в форум WEB DL / HD / BDRip 1080


Snowden
 

Текущее время: 17-Окт 21:10

Часовой пояс: GMT + 3



Вы не можете начинать темы
Вы не можете отвечать на сообщения
Вы не можете редактировать свои сообщения
Вы не можете удалять свои сообщения
Вы не можете голосовать в опросах
Вы не можете прикреплять файлы к сообщениям
Вы не можете скачивать файлы