Loading...
Error
 

Скачать торрент Смерть по прибытии / Dead on Arrival (Стивен Сефер / Stephen Sepher) [2017, триллер, WEB-DL 1080p] MVO [HDrezka Studio]

 
Автор Сообщение

S.T.A.L.K.E.R.2

post 17-Апр-18 16:12

Смерть по прибытии
Dead on Arrival

pic


pic
Страна: США
Жанр: триллер
Год выпуска: 2017
Продолжительность: 01:37:10

Перевод: Любительский (многоголосый, закадровый) [HDrezka Studio]
Субтитры: английские (полные, SDH)
Оригинальная аудиодорожка: английский

Режиссер: Стивен Сефер / Stephen Sepher

В ролях: Криста Б. Аллен, Скотти Томпсон, Д.Б. Суини, Лилло Бранкато, Крис Малки, Билли Слотер, Лаура Флэннери, Билли Флинн, Мария О’Брайэн, Мэттью Полкамп, Кристофер Роб Бауэн, Denise Milfort

Описание:
В центре сюжета оказывается Сэм Коллинз – успешный торговый представитель, который приезжает на закрытую вечеринку, чтобы подписать контракт с доктором Александром Ричардсом, являющимся хозяином роскошного особняка, где происходит мероприятие. Достигнув поставленной цели, Сэм решает расслабиться и провести остаток вечера в компании очаровательных красоток. Проснувшись, он отправляется домой, но по пути чувствует сильное недомогание и теряет сознание. Очнувшись в больнице, наш герой узнает ужасную новость – его отравили, используя опаснейший токсин, противоядия от которого не существует, поэтому жить ему осталось не более 24 часов...

Автор релиза: stalkerok
Дорожка HDrezka Studio извлечена с их сайта, синхронизирована и перекодирована в AC3
Релиз без рекламы!

Сэмпл

Качество видео: WEB-DL 1080p [Dead.on.Arrival.2017.1080p.WEB-DL.DD5.1.H.264-FGT]
Формат видео: MKV
Видео кодек: AVC
Аудио кодек: AC3
Видео: AVC, 4491 Кбит/сек, 1920x804 (2.40:1), 23,976 кадр/сек
Аудио №1: AC3, 192 Кбит/сек, 48 КГц, 2.0 - русский
Аудио №2: AC3, 384 Кбит/сек, 48 КГц, 5.1 - английский
Навигация по главам: есть
Доп. информация
pic pic
MediaInfo
General
Unique ID : 247979817101074850001321819829922473646 (0xBA8F2CEFEB16DCA8A595C41B4CD8A6AE)
Complete name : V:\!Rips\Dead on Arrival (2017)\Dead.on.Arrival.2017.1080p.WEB-DL.Rus.Eng.H.264.FGT-stalkerok.new-team.mkv
Format : Matroska
Format version : Version 4 / Version 2
File size : 3.44 GiB
Duration : 1 h 37 min
Overall bit rate : 5 070 kb/s
Movie name : Dead on Arrival (2017) - release by stalkerok
Encoded date : UTC 2018-04-16 23:27:28
Writing application : mkvmerge v8.6.1 ('Flying') 64bit
Writing library : libebml v1.3.3 + libmatroska v1.4.4

Video
ID : 1
Format : AVC
Format/Info : Advanced Video Codec
Format profile : [email protected]
Format settings, CABAC : Yes
Format settings, ReFrames : 5 frames
Codec ID : V_MPEG4/ISO/AVC
Duration : 1 h 37 min
Bit rate : 4 492 kb/s
Width : 1 920 pixels
Height : 804 pixels
Display aspect ratio : 2.40:1
Frame rate mode : Constant
Frame rate : 23.976 (23976/1000) FPS
Color space : YUV
Chroma subsampling : 4:2:0
Bit depth : 8 bits
Scan type : Progressive
Bits/(Pixel*Frame) : 0.121
Stream size : 3.05 GiB (89%)
Title : Dead on Arrival (2017) - release by stalkerok
Language : English
Default : Yes
Forced : No
Color range : Limited
Color primaries : BT.709
Transfer characteristics : BT.709
Matrix coefficients : BT.709

Audio #1
ID : 2
Format : AC-3
Format/Info : Audio Coding 3
Mode extension : CM (complete main)
Format settings, Endianness : Big
Codec ID : A_AC3
Duration : 1 h 37 min
Bit rate mode : Constant
Bit rate : 192 kb/s
Channel(s) : 2 channels
Channel positions : Front: L R
Sampling rate : 48.0 kHz
Frame rate : 31.250 FPS (1536 spf)
Compression mode : Lossy
Stream size : 133 MiB (4%)
Title : HDrezka Studio
Language : Russian
Default : Yes
Forced : No

Audio #2
ID : 3
Format : AC-3
Format/Info : Audio Coding 3
Mode extension : CM (complete main)
Format settings, Endianness : Big
Codec ID : A_AC3
Duration : 1 h 37 min
Bit rate mode : Constant
Bit rate : 384 kb/s
Channel(s) : 6 channels
Channel positions : Front: L C R, Side: L R, LFE
Sampling rate : 48.0 kHz
Frame rate : 31.250 FPS (1536 spf)
Compression mode : Lossy
Stream size : 267 MiB (8%)
Language : English
Default : No
Forced : No

Text #1
ID : 4
Format : UTF-8
Codec ID : S_TEXT/UTF8
Codec ID/Info : UTF-8 Plain Text
Duration : 1 h 31 min
Bit rate : 51 b/s
Count of elements : 1002
Stream size : 34.1 KiB (0%)
Language : English
Default : No
Forced : No

Text #2
ID : 5
Format : UTF-8
Codec ID : S_TEXT/UTF8
Codec ID/Info : UTF-8 Plain Text
Duration : 1 h 32 min
Bit rate : 54 b/s
Count of elements : 1118
Stream size : 36.7 KiB (0%)
Title : SDH
Language : English
Default : No
Forced : No

Menu
00:00:00.000 : en:1
00:04:01.241 : en:2
00:12:11.773 : en:3
00:18:54.133 : en:4
00:26:30.756 : en:5
00:29:32.938 : en:6
00:36:11.294 : en:7
00:41:59.976 : en:8
00:48:26.278 : en:9
00:53:37.964 : en:10
01:01:42.948 : en:11
01:07:06.771 : en:12
01:11:59.563 : en:13
01:17:18.423 : en:14
01:24:25.933 : en:15
01:31:53.839 : en:16
Скриншоты
pic
Dead.on.Arrival.2017.1080p.WEB-DL.Rus.Eng.H.264.FGT-stalkerok.new-team.mkv.torrent
Трекер: Зарегистрирован

magnet ссылка

 


Скачать .torrent

18 KB

Статус: проверено (by Арт33 в 17-Апр-18 18:33)
Зарегистрирован: 17-Апр-18 16:12
Скачан: 76 раз
Размер: 3.44 GB | 
Поблагодарили:
Скачать Смерть по прибытии / Dead on Arrival (Стивен Сефер / Stephen Sepher) [2017, триллер, WEB-DL 1080p] MVO [HDrezka Studio] торрент
 


Похожие раздачи

S.T.A.L.K.E.R.2

post 17-Апр-18 16:31 (спустя 18 минут)

В этой http://rustorka.com/forum/viewtopic.php?t=232432 раздаче русский звук сделан через заднее отверстие.

post 12-Июл-18 15:05 (спустя 2 месяца 24 дня)

Топик был перенесен из форума WEB-DL / WEB-DLRip в форум Триллер


Snowden
 

Текущее время: 17-Окт 21:07

Часовой пояс: GMT + 3



Вы не можете начинать темы
Вы не можете отвечать на сообщения
Вы не можете редактировать свои сообщения
Вы не можете удалять свои сообщения
Вы не можете голосовать в опросах
Вы не можете прикреплять файлы к сообщениям
Вы не можете скачивать файлы