Loading...
Error
 

Скачать торрент Статус: Обновлен / Status Update (Скотт Спир / Scott Speer) [2018, фэнтези, комедия, WEB-DL 1080p] MVO [HDrezka Studio]

 
Автор Сообщение

S.T.A.L.K.E.R.2

post 17-Апр-18 19:15

Статус: Обновлен
Status Update

pic


pic
Страна: Китай, Канада, США
Жанр: фэнтези, комедия

Год выпуска: 2018
Продолжительность: 01:46:23

Перевод: Любительский (многоголосый, закадровый) [HDrezka Studio]
Субтитры: английские (полные, SDH)
Оригинальная аудиодорожка: английский

Режиссер: Скотт Спир / Scott Speer

В ролях: Росс Линч, Оливия Холт, Харви Гильен, Кортни Итон, Грегг Салкин, Брэк Бэссинджер, Maude Green, Маркян Тарасюк, Эндрю Херр, Мика, Остин Обиаджунва, Вивиан Фулл

Описание:
Мы оцениваем друг друга по количеству подписчиков и гоняемся за лайками, чтобы обрести популярность. Кайл живет точно так же, не выпуская из рук телефон, а из-под ног - скейт. Неожиданно ему достается новый смартфон с уникальным приложением - теперь любой опубликованный им пост воплощается в реальность. Счастливчик обретает даже больше, чем мог себе представить, но быть в эпицентре мира, оказывается, не так-то легко...

Автор релиза: stalkerok
Дорожка HDrezka Studio извлечена с их сайта, синхронизирована и перекодирована в AC3

Сэмпл

Качество видео: WEB-DL 1080p [Status.Update.2018.1080p.WEB-DL.DD5.1.H.264-FGT]
Формат видео: MKV
Видео кодек: AVC
Аудио кодек: AC3
Видео: AVC, 4568 Кбит/сек, 1920x800 (2.40:1), 23,976 кадр/сек
Аудио №1: AC3, 192 Кбит/сек, 48 КГц, 2.0 - русский
Аудио №2: AC3, 384 Кбит/сек, 48 КГц, 5.1 - английский
Навигация по главам: есть
Доп. информация
pic pic
MediaInfo
General
Unique ID : 218318913554306968398957013848731125742 (0xA43EB17C5F83226E8F3CA0D92F3787EE)
Complete name : V:\!Rips\Status Update (2018)\Status.Update.2018.1080p.WEB-DL.Rus.Eng.H.264.FGT-stalkerok.new-team.mkv
Format : Matroska
Format version : Version 4 / Version 2
File size : 3.83 GiB
Duration : 1 h 46 min
Overall bit rate : 5 147 kb/s
Movie name : Status Update (2018) - release by stalkerok
Encoded date : UTC 2018-04-17 15:52:43
Writing application : mkvmerge v8.6.1 ('Flying') 64bit
Writing library : libebml v1.3.3 + libmatroska v1.4.4

Video
ID : 1
Format : AVC
Format/Info : Advanced Video Codec
Format profile : [email protected]
Format settings, CABAC : Yes
Format settings, ReFrames : 5 frames
Codec ID : V_MPEG4/ISO/AVC
Duration : 1 h 46 min
Bit rate : 4 568 kb/s
Width : 1 920 pixels
Height : 800 pixels
Display aspect ratio : 2.40:1
Frame rate mode : Constant
Frame rate : 23.976 (24000/1001) FPS
Color space : YUV
Chroma subsampling : 4:2:0
Bit depth : 8 bits
Scan type : Progressive
Bits/(Pixel*Frame) : 0.124
Stream size : 3.40 GiB (89%)
Title : Status Update (2018) - release by stalkerok
Language : English
Default : Yes
Forced : No
Color range : Limited
Color primaries : BT.709
Transfer characteristics : BT.709
Matrix coefficients : BT.709

Audio #1
ID : 2
Format : AC-3
Format/Info : Audio Coding 3
Mode extension : CM (complete main)
Format settings, Endianness : Big
Codec ID : A_AC3
Duration : 1 h 46 min
Bit rate mode : Constant
Bit rate : 192 kb/s
Channel(s) : 2 channels
Channel positions : Front: L R
Sampling rate : 48.0 kHz
Frame rate : 31.250 FPS (1536 spf)
Compression mode : Lossy
Stream size : 146 MiB (4%)
Title : HDrezka Studio
Language : Russian
Default : Yes
Forced : No

Audio #2
ID : 3
Format : AC-3
Format/Info : Audio Coding 3
Mode extension : CM (complete main)
Format settings, Endianness : Big
Codec ID : A_AC3
Duration : 1 h 46 min
Bit rate mode : Constant
Bit rate : 384 kb/s
Channel(s) : 6 channels
Channel positions : Front: L C R, Side: L R, LFE
Sampling rate : 48.0 kHz
Frame rate : 31.250 FPS (1536 spf)
Compression mode : Lossy
Stream size : 292 MiB (7%)
Language : English
Default : No
Forced : No

Text #1
ID : 4
Format : UTF-8
Codec ID : S_TEXT/UTF8
Codec ID/Info : UTF-8 Plain Text
Duration : 1 h 42 min
Bit rate : 77 b/s
Count of elements : 1623
Stream size : 58.4 KiB (0%)
Language : English
Default : No
Forced : No

Text #2
ID : 5
Format : UTF-8
Codec ID : S_TEXT/UTF8
Codec ID/Info : UTF-8 Plain Text
Duration : 1 h 42 min
Bit rate : 80 b/s
Count of elements : 1693
Stream size : 60.7 KiB (0%)
Title : SDH
Language : English
Default : No
Forced : No

Menu
00:00:00.000 : en:1
00:06:33.000 : en:2
00:13:13.000 : en:3
00:20:14.000 : en:4
00:25:40.000 : en:5
00:33:43.000 : en:6
00:41:00.000 : en:7
00:46:55.000 : en:8
00:53:36.000 : en:9
01:00:25.000 : en:10
01:07:06.000 : en:11
01:13:45.000 : en:12
01:20:07.000 : en:13
01:26:05.000 : en:14
01:32:24.000 : en:15
01:40:57.000 : en:16
Скриншоты
pic
Status.Update.2018.1080p.WEB-DL.Rus.Eng.H.264.FGT-stalkerok.new-team.mkv.torrent
Трекер: Зарегистрирован

magnet ссылка

 


Скачать .torrent

20 KB

Статус: проверено (by Арт33 в 17-Апр-18 20:12)
Зарегистрирован: 17-Апр-18 19:15
Скачан: 113 раз
Размер: 3.83 GB | 
Поблагодарили:
Скачать Статус: Обновлен / Status Update (Скотт Спир / Scott Speer) [2018, фэнтези, комедия, WEB-DL 1080p] MVO [HDrezka Studio] торрент
 


Похожие раздачи

S.T.A.L.K.E.R.2

post 17-Апр-18 19:16 (спустя 31 секунда)

В соседней раздаче фейковые 6 каналов, раздутые из стерео.

post 12-Июл-18 14:59 (спустя 2 месяца 24 дня)

Топик был перенесен из форума WEB-DL / WEB-DLRip в форум Фэнтези


Snowden
 

Текущее время: 17-Окт 21:08

Часовой пояс: GMT + 3



Вы не можете начинать темы
Вы не можете отвечать на сообщения
Вы не можете редактировать свои сообщения
Вы не можете удалять свои сообщения
Вы не можете голосовать в опросах
Вы не можете прикреплять файлы к сообщениям
Вы не можете скачивать файлы