Loading...
Error
 

Скачать торрент Бегущий в лабиринте: Лекарство от смерти / Maze Runner: The Death Cure (Уэс Болл) [2018 г., фантастика, боевик, триллер, BDRip 1080p][iTunes][от R.G. RustorRipper's]

 
Автор Сообщение

and77200

post 17-Апр-18 19:28

pic
pic
Бегущий в лабиринте: Лекарство от смерти
Maze Runner: The Death Cure
«Из каждого лабиринта всегда есть выход»

Год выпуска: 2018
Страна: СШАpic
Жанр: фантастика, боевик, триллер
Продолжительность: 02:23:52
Перевод: Профессиональный (полное дублирование) [iTunes]
Субтитры: Русские (full), Украинские (full), Английские
Режиссёр
pic
В ролях: Дилан О’Брайен (Thomas), Ли Ги-хон (Minho), Кая Скоделарио (Teresa), Томас Сэнгстер (Newt), Декстер Дарден (Frypan), Уилл Поултер (Gally), Джейкоб Лофленд (Aris), Роза Салазар (Brenda), Джанкарло Эспозито (Jorge), Патришия Кларксон (Ava Paige), Эйдан Гиллен (Janson), Барри Пеппер (Vince)
pic pic pic pic pic pic pic pic pic pic pic pic
Описание: Томас возглавляет отряд выживших глейдеров, чтобы выполнить последнюю и самую опасную миссию. Ради спасения своих друзей они должны проникнуть в легендарный Последний город, смертоносный лабиринт, контролируемый ПОРОКом. Каждый, кто выживет там, наконец-то получит ответы на все вопросы, которые мучили глейдеров с момента попадания в лабиринт.

Качество: BDRip 1080p (Источник: BDRemux 1080p)
Контейнер: MKV
Видео кодек: MPEG-4 AVC
Аудио кодек: AC3

Видео: AVC, 1920x800 (2.40:1), 9900 kbps, 23,976 fps, 0,269 bpp
Аудио №1: picРусский / AC3 / 5.1 / 48 kHz / 384 kbps / 16 bit
Аудио №2: picАнглийский / DTS / 5.1 / 48 kHz / 1 510 kbps / 24 bit
Рип: pic Группа: pic pic
Media Info
General
Unique ID : 215638946637026159199899721843217210966 (0xA23A8CEA51E0F20C1DB7F47863BB1E56)
Complete name : E:\[email protected]mkv
Format : Matroska
Format version : Version 4 / Version 2
File size : 11.9 GiB
Duration : 2 h 23 min
Overall bit rate : 11.8 Mb/s
Movie name : Бегущий в лабиринте: Лекарство от смерти.2018 - [email protected]
Encoded date : UTC 2018-04-21 18:20:10
Writing application : mkvmerge v20.0.0 ('I Am The Sun') 64-bit
Writing library : libebml v1.3.5 + libmatroska v1.4.8

Video
ID : 1
Format : AVC
Format/Info : Advanced Video Codec
Format profile : [email protected]
Format settings, CABAC : Yes
Format settings, ReFrames : 5 frames
Codec ID : V_MPEG4/ISO/AVC
Duration : 2 h 23 min
Bit rate : 9 900 kb/s
Width : 1 920 pixels
Height : 800 pixels
Display aspect ratio : 2.40:1
Frame rate mode : Constant
Frame rate : 23.976 (24000/1001) FPS
Color space : YUV
Chroma subsampling : 4:2:0
Bit depth : 8 bits
Scan type : Progressive
Bits/(Pixel*Frame) : 0.269
Stream size : 9.95 GiB (84%)
Writing library : x264 core 155 r2901M 7d0ff22
Encoding settings : cabac=1 / ref=5 / deblock=1:-1:-1 / analyse=0x3:0x113 / me=umh / subme=11 / psy=1 / psy_rd=1.05:0.15 / mixed_ref=1 / me_range=32 / chroma_me=1 / trellis=2 / 8x8dct=1 / cqm=0 / deadzone=21,11 / fast_pskip=0 / chroma_qp_offset=-3 / threads=10 / lookahead_threads=1 / sliced_threads=0 / nr=0 / decimate=1 / interlaced=0 / bluray_compat=0 / constrained_intra=0 / bframes=6 / b_pyramid=2 / b_adapt=2 / b_bias=9 / direct=3 / weightb=1 / open_gop=0 / weightp=2 / keyint=240 / keyint_min=24 / scenecut=40 / intra_refresh=0 / rc_lookahead=60 / rc=2pass / mbtree=1 / bitrate=9900 / ratetol=1.0 / qcomp=0.70 / qpmin=3 / qpmax=69 / qpstep=9 / cplxblur=20.0 / qblur=0.5 / ip_ratio=1.40 / aq=2:1.00
Language : English
Default : Yes
Forced : No

Audio #1
ID : 2
Format : AC-3
Format/Info : Audio Coding 3
Mode extension : CM (complete main)
Format settings, Endianness : Big
Codec ID : A_AC3
Duration : 2 h 23 min
Bit rate mode : Constant
Bit rate : 384 kb/s
Channel(s) : 6 channels
Channel positions : Front: L C R, Side: L R, LFE
Sampling rate : 48.0 kHz
Frame rate : 31.250 FPS (1536 spf)
Bit depth : 16 bits
Compression mode : Lossy
Stream size : 395 MiB (3%)
Title : iTunes
Language : Russian
Default : Yes
Forced : Yes

Audio #2
ID : 3
Format : DTS
Format/Info : Digital Theater Systems
Mode : 16
Format settings, Endianness : Big
Codec ID : A_DTS
Duration : 2 h 23 min
Bit rate mode : Constant
Bit rate : 1 509 kb/s
Channel(s) : 6 channels
Channel positions : Front: L C R, Side: L R, LFE
Sampling rate : 48.0 kHz
Frame rate : 93.750 FPS (512 spf)
Bit depth : 24 bits
Compression mode : Lossy
Stream size : 1.52 GiB (13%)
Title : Original
Language : English
Default : No
Forced : No

Text #1
ID : 4
Format : UTF-8
Codec ID : S_TEXT/UTF8
Codec ID/Info : UTF-8 Plain Text
Duration : 2 h 22 min
Bit rate : 55 b/s
Count of elements : 1389
Stream size : 57.6 KiB (0%)
Title : Full
Language : Russian
Default : No
Forced : No

Text #2
ID : 5
Format : UTF-8
Codec ID : S_TEXT/UTF8
Codec ID/Info : UTF-8 Plain Text
Duration : 2 h 20 min
Bit rate : 49 b/s
Count of elements : 1397
Stream size : 50.4 KiB (0%)
Title : Full
Language : Ukrainian
Default : No
Forced : No

Text #3
ID : 6
Format : UTF-8
Codec ID : S_TEXT/UTF8
Codec ID/Info : UTF-8 Plain Text
Duration : 2 h 15 min
Bit rate : 35 b/s
Count of elements : 1475
Stream size : 35.5 KiB (0%)
Title : Full
Language : English
Default : No
Forced : No

Text #4
ID : 7
Format : UTF-8
Codec ID : S_TEXT/UTF8
Codec ID/Info : UTF-8 Plain Text
Duration : 2 h 15 min
Bit rate : 40 b/s
Count of elements : 1688
Stream size : 40.6 KiB (0%)
Title : SDH
Language : English
Default : No
Forced : No

Menu
00:00:00.000 : en:Chapter 1
00:11:31.607 : en:Chapter 2
00:15:59.750 : en:Chapter 3
00:20:08.457 : en:Chapter 4
00:24:34.890 : en:Chapter 5
00:30:40.547 : en:Chapter 6
00:36:47.330 : en:Chapter 7
00:43:15.342 : en:Chapter 8
00:48:06.341 : en:Chapter 9
00:55:17.397 : en:Chapter 10
01:02:42.925 : en:Chapter 11
01:07:14.488 : en:Chapter 12
01:11:56.061 : en:Chapter 13
01:15:48.210 : en:Chapter 14
01:23:20.328 : en:Chapter 15
01:29:45.421 : en:Chapter 16
01:34:00.593 : en:Chapter 17
01:40:09.795 : en:Chapter 18
01:43:33.081 : en:Chapter 19
01:53:38.645 : en:Chapter 20
01:59:43.885 : en:Chapter 21
02:04:49.398 : en:Chapter 22
02:10:03.086 : en:Chapter 23
02:18:03.858 : en:Chapter 24
pic
pic
Оформление by and77200
[email protected]mkv.torrent
 СЕРЕБРЯНАЯ РАЗДАЧА! СКАЧАННОЕ ЗАСЧИТЫВАЕТСЯ ТОЛЬКО НАПОЛОВИНУ! 
Вечный
Трекер: Зарегистрирован

magnet ссылка

 


Скачать .torrent

119 KB

Статус: проверено (by and77200 в 21-Апр-18 22:24)
Зарегистрирован: 21-Апр-18 22:24
Скачан: 2393 раза
Размер: 11.85 GB | 
Поблагодарили:
Скачать Бегущий в лабиринте: Лекарство от смерти / Maze Runner: The Death Cure (Уэс Болл) [2018 г., фантастика, боевик, триллер, BDRip 1080p][iTunes][от R.G. RustorRipper's] торрент
 


Похожие раздачи

antnazar

post 21-Апр-18 13:28 (спустя 3 дня)

and77200
где найти ваш торрент?

and77200

post 21-Апр-18 22:09 (спустя 8 часов)

antnazar

Всмысле где найти?

добавлено спустя 1 час 5 минут:

Перезалит на iTunes

Asuno

post 05-Май-18 21:49 (спустя 13 дней)

antnazar
Это имел ввиду?
Скрытый текст
pic

Adxiel

post 16-Июн-18 00:58 (спустя 1 месяц 10 дней)

Да ты же адовый адок на задок, и на передок,
Чёт как-то не оч, чёт так-то не ок...

post 12-Июл-18 15:39 (спустя 26 дней)

Топик был перенесен из форума BDRip / Full HD (720p / 1080p / Ultra HD (4K)) в форум Фантастика


Snowden
 

Текущее время: 17-Окт 21:08

Часовой пояс: GMT + 3



Вы не можете начинать темы
Вы не можете отвечать на сообщения
Вы не можете редактировать свои сообщения
Вы не можете удалять свои сообщения
Вы не можете голосовать в опросах
Вы не можете прикреплять файлы к сообщениям
Вы не можете скачивать файлы