Loading...
Error
 

Скачать торрент Королевство вулканов (Народ Вулканов) / Le Peuple des Volcans (1-6 серии из 6) ( Бертран Лойер, Жак Бедель, Франсуа де Рибероль)[2010,документальный,BDRip 1080p][HEVC][Дасевич]

 
Автор Сообщение

brother225

post 14-Июн-18 14:03

pic
Королевство вулканов (Народ Вулканов) / Le Peuple des Volcans

Год выпуска: 2010
Страна: Франция
Жанр: Документальный
Продолжительность: 6 х ~ 00:52:00
Серии: 1-6 из 6
Перевод: Одноголосый закадровый,(А.Дасевич)
Субтитры: отсутствуют
В ролях: Жак Гамблен, Джереми Айронс
Режиссёр: Бертран Лойер, Жак Бедель, Франсуа де Рибероль
Описание: История жизни на Земле и огонь неразрывно связаны между собой: вулканы несут ответственность за формирование первых органических молекул и появления жизни на Земле. Этот амбициозный документальный сериал откроет завесу побед и поражений животных, живущих рядом с огнём. Такие хрупкие и милые они поделятся с вами реальными уроками выживания в адском и опасном мире огня.
Качество: BDRip 1080p
Формат: MKV
Видео кодек: x265
Аудио кодек: AC3
Видео: HEVC 1920х1080 (16:9), 25.000 fps , 4826-8500 kb/s,10bit
Аудио: AC3, 6 ch, 48 KHz, 640 Kb/s
содержание
Эпизод 1: Les vagabonds des cendres / Странники пепла
Продолжительность: 00:52:30
На вулканическом острове Новая Британия, горсть животные научились жить в спорадическом гневе Земли. Когда пепел от извержения вторгается в их среду обитания, выбор кажется простым: остаться и приспособиться, или оставить эти места.

Эпизод 2: Naissance d'une ile / Рождение острова
Продолжительность: 00:52:15
В пустоте Тихого океана, тектонические движения строят или поглощают острова после извержения на земле или на море. В архипелаге Тонга, два маленьких известных животных научились справляться с этими эфемерными землями, поднявшимися из глубин океана: крачки, морские птицы, которые никогда не осмеливаются мочить крылья из-за страха утонуть, и креветки Элвина, слепые моллюски, которые могут найти свой путь вокруг бездны. Когда подводный вулкан становится островом, судьбы этих двух незаурядных жизненных форм становиться парадоксально связанными.

Эпизод 3: Les Saumons-Surprise / Неожиданные лососи
Продолжительность: 00:52:30
Снова и снова на протяжении веков вулканы Аляски извергались и отравляли окружающую среду. Ученые только начинают воедино соединять то, что могло бы случиться почти 2000 лет тому назад, когда один из видов лосося встретился лицом к лицу со смертью их родной реки и был вынужден вернуться в открытый океан, в необыкновенное приключение. Путешествуя между сернистых вод, медведей, акул и орлов, гневом земли, рыбы продолжили первопроходческое путешествие в сердце действующего вулкана, чтобы оставить потомство.

Эпизод 4: Le temple des phenix / Храм фениксов
Продолжительность: 00:52:14
Вокруг вулкана Масая в Никарагуа тысячи лет жизнь боролась за то, чтобы возникнуть вновь из пепла. Подземелья, мили туннелей уже колонизировали вампиры и другие виды летучих мышей, созданных исключительно течением горячей магмы. В кратере, сразу же заполнившимся гигантским озером лавы, попугаи и стервятники свили свои гнезда на скалах подвергающиеся воздействию токсичных газов. На склонах этой по-прежнему активной горы растительность была сожжена потоками лавы, оставляя длинные бесплодные полосы, на протяжении сотен лет вновь колонизированные, начиная с низших лишайников и заканчивая цветущим лесом. У подножия вулкана поля и пастбища растут на более старых лавовых потоках. В этот суровом климате, природа борется до следующего извержения, чтобы победить пепел и лаву, изгладить свои усилия... и Феникс должен возродиться.

Эпизод 5: Trappeurs de volcans / Надзиратели вулканов
Продолжительность: 00:52:36
Вне зависимости от места: Филиппины, Папуа-Новая Гвинея, Колумбия, Чили, Италия, Исландия - каждая из этих стран является домом для активных вулканов, которые представляют собой угрозу для населения, живущего у их подножья. В один из дней лава, пепел, газы, вулканические бомбы и лавины скорее всего сдвинут вниз зияющие пасти этих гигантов. Чтобы избежать бедствий, вулканологов спрашивают и просят, чтобы те смогли это предвидеть и предупредить, и умели анализировать малейшие сотрясения вулканов. По всему миру эти "надзиратели вулканов" используют свои инструменты и знания, чтобы попытаться защитить всех от подземного огня.

Эпизод 6: Volcans d’Islande, et demain? / Вулканы Исландии. Что завтра?
Продолжительность: 00:52:53
Извержение исландского вулкана Eyafjallajokull вызвало огромный экономический беспорядок, парализовав сеть мировых авиационных перевозок в течение нескольких дней. Тем не менее, это было извержение малой амплитуды, другие вулканы, гораздо более мощные, готовы уже сегодня проснуться в Исландии. Путешествуя с помощью аэрофотоснимков по этой стране, поверхность которой образована пеплом и лавой, и через лабиринты кратеров, создатели фильма пытаются выяснить, какой из следующих вулканов может проснутся и какие могут быть последствия крупного извержения.
MediaInfo
Complete name : H:\мои раздачи\Le Peuple des Volcans\3.mkv
Format : Matroska
Format version : Version 4 / Version 2
File size : 3.07 GiB
Duration : 52 min 30 s
Overall bit rate : 8 365 kb/s
Encoded date : UTC 2018-06-14 10:19:15
Writing application : mkvmerge v24.0.0 ('Beyond The Pale') 64-bit
Writing library : libebml v1.3.6 + libmatroska v1.4.9

Video
ID : 1
Format : HEVC
Format/Info : High Efficiency Video Coding
Format profile : Main [email protected]@Main
Codec ID : V_MPEGH/ISO/HEVC
Duration : 52 min 30 s
Bit rate : 7 723 kb/s
Width : 1 920 pixels
Height : 1 080 pixels
Display aspect ratio : 16:9
Frame rate mode : Constant
Frame rate : 25.000 FPS
Color space : YUV
Chroma subsampling : 4:2:0
Bit depth : 10 bits
Bits/(Pixel*Frame) : 0.149
Stream size : 2.83 GiB (92%)
Writing library : x265 2.8+19-bcdc610cf5f0:[Windows][MSVC 1914][64 bit] 10bit
Default : Yes
Forced : No

Audio
ID : 2
Format : AC-3
Format/Info : Audio Coding 3
Codec ID : A_AC3
Duration : 52 min 30 s
Bit rate mode : Constant
Bit rate : 640 kb/s
Channel(s) : 6 channels
Channel positions : Front: L C R, Side: L R, LFE
Sampling rate : 48.0 kHz
Frame rate : 31.250 FPS (1536 SPF)
Bit depth : 16 bits
Compression mode : Lossy
Stream size : 240 MiB (8%)
Service kind : Complete Main
Default : Yes
Forced : No

Forced : No
Скриншоты
Le Peuple des Volcans.torrent
 СЕРЕБРЯНАЯ РАЗДАЧА! СКАЧАННОЕ ЗАСЧИТЫВАЕТСЯ ТОЛЬКО НАПОЛОВИНУ! 
Вечный
Трекер: Зарегистрирован

magnet ссылка

 


Скачать .torrent

80 KB

Статус: проверено (by Арт33 в 15-Июн-18 13:25)
Зарегистрирован: 15-Июн-18 11:04
Скачан: 32 раза
Размер: 15.9 GB | 
Поблагодарили:
Скачать Королевство вулканов (Народ Вулканов) / Le Peuple des Volcans (1-6 серии из 6) ( Бертран Лойер, Жак Бедель, Франсуа де Рибероль)[2010,документальный,BDRip 1080p][HEVC][Дасевич] торрент
 


Похожие раздачи

Snowden

post 14-Июн-18 14:24 (спустя 21 минута)

brother225
Режиссер: Бертран Лойер, Жак Бедель, Франсуа де Рибероль
В ролях: Жак Гамблен, Джереми Айронс

brother225

post 15-Июн-18 11:05 (спустя 20 часов)

Snowden
готовченко

добавлено спустя 19 часов 35 минут:

все серии

Текущее время: 25-Июн 19:00

Часовой пояс: GMT + 3



Вы не можете начинать темы
Вы не можете отвечать на сообщения
Вы не можете редактировать свои сообщения
Вы не можете удалять свои сообщения
Вы не можете голосовать в опросах
Вы не можете прикреплять файлы к сообщениям
Вы не можете скачивать файлы