Loading...
Error
 

Скачать торрент Земля Один потрясающий день / Earth One Amazing Day (Ричард Дэйл, Фань Лисинь, Питер Веббер)[2017,Документальный, научно-популярный, фауна,BDRip 1440p][HEVC][Дроздов]

 
Автор Сообщение

brother225

post 11-Июл-18 19:15

pic
Земля Один потрясающий день / Earth One Amazing Day

Год выпуска: 2017
Страна: Великобритания
Жанр: Документальный, научно-популярный, фауна
Продолжительность: 01:33:44
Перевод: Дублированный (Николай Дроздов)
Субтитры: отсутствуют
Режиссёр: Ричард Дэйл, Фань Лисинь, Питер Веббер
Описание: Один обыкновенный и впечатляющий день из жизни разных представителей дикой природы: от неприметных насекомых до царственных хищников. Чем занимаются от рассвета до заката жители джунглей и ледников, морей и пустынь? Они выходят на охоту, борются за выживание, растят детенышей и втягиваются в круговорот удивительных приключений.
Качество: BDRip 1440p
Формат: MKV
Видео кодек: x265
Аудио кодек: AC3
Видео: HEVC 2560х1440, 24 fps 11,4 Mb/s ,0.129 bpp,10bit
Аудио: Русский: AC3, 6 ch , 48 KHz 640 Kb/s
MediaInfo
Complete name : H:\мои раздачи\Earth.One.Amazing.Day.2017_HEVC_1440.mkv
Format : Matroska
Format version : Version 4 / Version 2
File size : 7.88 GiB
Duration : 1 h 33 min
Overall bit rate : 12.0 Mb/s
Encoded date : UTC 2018-07-11 15:37:51
Writing application : mkvmerge v24.0.0 ('Beyond The Pale') 64-bit
Writing library : libebml v1.3.6 + libmatroska v1.4.9

Video
ID : 1
Format : HEVC
Format/Info : High Efficiency Video Coding
Format profile : Main [email protected]@Main
Codec ID : V_MPEGH/ISO/HEVC
Duration : 1 h 33 min
Bit rate : 11.4 Mb/s
Width : 2 560 pixels
Height : 1 440 pixels
Display aspect ratio : 16:9
Frame rate mode : Constant
Frame rate : 24.000 FPS
Color space : YUV
Chroma subsampling : 4:2:0
Bit depth : 10 bits
Bits/(Pixel*Frame) : 0.129
Stream size : 7.46 GiB (95%)
Writing library : x265 2.8+40-0106f9f2f867:[Windows][MSVC 1914][64 bit] 10bit
Default : Yes
Forced : No
Color range : Limited
Color primaries : BT.2020
Transfer characteristics : PQ
Matrix coefficients : BT.2020 non-constant
Maximum Content Light Level : 1000 cd/m2
Maximum Frame-Average Light : 217 cd/m2

Audio
ID : 2
Format : AC-3
Format/Info : Audio Coding 3
Codec ID : A_AC3
Duration : 1 h 33 min
Bit rate mode : Constant
Bit rate : 640 kb/s
Channel(s) : 6 channels
Channel positions : Front: L C R, Side: L R, LFE
Sampling rate : 48.0 kHz
Frame rate : 31.250 FPS (1536 SPF)
Bit depth : 16 bits
Compression mode : Lossy
Stream size : 429 MiB (5%)
Service kind : Complete Main
Default : Yes
Forced : No
Скриншоты
Earth.One.Amazing.Day.2017_HEVC_1440.mkv.torrent
 СЕРЕБРЯНАЯ РАЗДАЧА! СКАЧАННОЕ ЗАСЧИТЫВАЕТСЯ ТОЛЬКО НАПОЛОВИНУ! 
Вечный
Трекер: Зарегистрирован

magnet ссылка

 


Скачать .torrent

40 KB

Статус: проверено (by Cherepah в 11-Июл-18 19:55)
Зарегистрирован: 11-Июл-18 19:15
Скачан: 81 раз
Размер: 7.88 GB | 
Поблагодарили:
Скачать Земля Один потрясающий день / Earth One Amazing Day (Ричард Дэйл, Фань Лисинь, Питер Веббер)[2017,Документальный, научно-популярный, фауна,BDRip 1440p][HEVC][Дроздов] торрент
 


Похожие раздачи

Текущее время: 16-Июл 04:11

Часовой пояс: GMT + 3



Вы не можете начинать темы
Вы не можете отвечать на сообщения
Вы не можете редактировать свои сообщения
Вы не можете удалять свои сообщения
Вы не можете голосовать в опросах
Вы не можете прикреплять файлы к сообщениям
Вы не можете скачивать файлы