Loading...
Error
 

Скачать торрент Тайны подводного мира / Deep Sea ( Ховард Холл)[2006,Документальный,BDRip 1080p][НЕВАФИЛЬМ] вертикальная анаморфная стереопара

 
Автор Сообщение

brother225

post 11-Июл-18 20:25

pic
Тайны подводного мира / Deep Sea

Год выпуска: 2006
Страна: США, Канада
Жанр: документальный
Продолжительность: 00:40:41
Субтитры: отсутствуют
Перевод: Профессиональный дублированный (НЕВАФИЛЬМ)
Режиссёр: Ховард Холл
Описание: Корпорация "IMAX" представляет фильм о тайнах морских глубин. Это один из самых красивых и эффектных фильмов "океанической серии", где вы познакомитесь с уникальнейшими обитателями подводного мира и узнаете о необычных порядках и законах, царящих на дне мирового океана.
Качество: BDRip 1080p
Формат: MKV
Формат 3D: вертикальная анаморфная стереопара
Порядок ракурсов: левый ракурс первый
Видео кодек:AVC
Аудио кодек: AC3
Видео: AVC, 1920х1080, 23.976 fps, 11000 Kb/s ,0.221 bpp
Аудио: AС3, 6 ch, 48 KHz, 448 Kb/s
MediaInfo
Complete name : H:\мои раздачи\Deep Sea 3D-TAB 1080p.mkv
Format : Matroska
Format version : Version 4 / Version 2
File size : 3.25 GiB
Duration : 40 min 49 s
Overall bit rate : 11.4 Mb/s
Encoded date : UTC 2018-07-11 17:14:46
Writing application : mkvmerge v24.0.0 ('Beyond The Pale') 64-bit
Writing library : libebml v1.3.6 + libmatroska v1.4.9

Video
ID : 1
Format : AVC
Format/Info : Advanced Video Codec
Format profile : [email protected]
MultiView_Count : 2
MultiView_Layout : Top-Bottom (left eye first)
Format settings : CABAC / 4 Ref Frames
Format settings, CABAC : Yes
Format settings, ReFrames : 4 frames
Codec ID : V_MPEG4/ISO/AVC
Duration : 40 min 49 s
Bit rate : 11.0 Mb/s
Width : 1 920 pixels
Height : 1 080 pixels
Display aspect ratio : 16:9
Frame rate mode : Constant
Frame rate : 23.976 (24000/1001) FPS
Color space : YUV
Chroma subsampling : 4:2:0
Bit depth : 8 bits
Scan type : Progressive
Bits/(Pixel*Frame) : 0.221
Stream size : 3.12 GiB (96%)
Title : 3D Half-T&B (x264 [email protected] 2-pass 11000 Kbps)
Writing library : x264 core 155 r2901 7d0ff22
Encoding settings : cabac=1 / ref=4 / deblock=1:-2:-1 / analyse=0x3:0x133 / me=umh / subme=10 / psy=1 / psy_rd=1.00:0.15 / mixed_ref=1 / me_range=24 / chroma_me=1 / trellis=2 / 8x8dct=1 / cqm=0 / deadzone=21,11 / fast_pskip=1 / chroma_qp_offset=-3 / threads=24 / lookahead_threads=2 / sliced_threads=0 / nr=0 / decimate=1 / interlaced=0 / bluray_compat=0 / constrained_intra=0 / bframes=6 / b_pyramid=2 / b_adapt=2 / b_bias=0 / direct=3 / weightb=1 / open_gop=0 / weightp=2 / keyint=250 / keyint_min=23 / scenecut=40 / intra_refresh=0 / rc_lookahead=60 / rc=2pass / mbtree=1 / bitrate=11000 / ratetol=1.0 / qcomp=0.60 / qpmin=0 / qpmax=69 / qpstep=4 / cplxblur=20.0 / qblur=0.5 / vbv_maxrate=62500 / vbv_bufsize=78125 / nal_hrd=none / filler=0 / frame-packing=4 / ip_ratio=1.40 / aq=1:1.00
Default : Yes
Forced : No
Color range : Limited
Matrix coefficients : BT.709

Audio
ID : 2
Format : AC-3
Format/Info : Audio Coding 3
Codec ID : A_AC3
Duration : 40 min 49 s
Bit rate mode : Constant
Bit rate : 448 kb/s
Channel(s) : 6 channels
Channel positions : Front: L C R, Side: L R, LFE
Sampling rate : 48.0 kHz
Frame rate : 31.250 FPS (1536 SPF)
Bit depth : 16 bits
Compression mode : Lossy
Stream size : 131 MiB (4%)
Service kind : Complete Main
Default : Yes
Forced : No

Menu
00:00:00.000 : :1 - 0:00:00
00:05:00.000 : :2 - 0:05:00
00:10:00.000 : :3 - 0:10:00
00:15:00.000 : :4 - 0:15:00
00:20:00.000 : :5 - 0:20:00
00:25:00.000 : :6 - 0:25:00
00:30:00.000 : :7 - 0:30:00
00:35:00.000 : :8 - 0:35:00
00:40:00.000 : :9 - 0:40:00
Скриншоты
Deep Sea 3D-TAB 1080p.mkv.torrent
Трекер: Зарегистрирован

magnet ссылка

 


Скачать .torrent

16 KB

Статус: проверено (by Snowden в 12-Июл-18 02:10)
Зарегистрирован: 11-Июл-18 20:25
Скачан: 21 раз
Размер: 3.25 GB | 
Поблагодарили:
Скачать Тайны подводного мира / Deep Sea ( Ховард Холл)[2006,Документальный,BDRip 1080p][НЕВАФИЛЬМ] вертикальная анаморфная стереопара торрент
 


Похожие раздачи

Текущее время: 14-Ноя 07:34

Часовой пояс: GMT + 3



Вы не можете начинать темы
Вы не можете отвечать на сообщения
Вы не можете редактировать свои сообщения
Вы не можете удалять свои сообщения
Вы не можете голосовать в опросах
Вы не можете прикреплять файлы к сообщениям
Вы не можете скачивать файлы