Loading...
Error
 

Скачать торрент (Black Metal) [CD] Immortal - Northern Chaos Gods - 2018, FLAC (image+.cue), lossless

 
Автор Сообщение

ikar666

post 11-Июл-18 22:53

pic
Immortal / Northern Chaos Gods

Год выпуска: 2018
Жанр: Black Metal
Продолжительность: 0:42:31
Тип рипа: image+.cue
Кодек: FLAC (*.flac)
Битрейт: lossless
Треклист:
1. Northern Chaos Gods
2. Into Battle Ride
3. Gates To Blashyrkh
4. Grim And Dark
5. Called To Ice
6. Where Mountains Rise
7. Blacker of Worlds
8. Mighty Ravendark
.log

Код:

[color=green]Exact Audio Copy V1.3 from 2. September 2016

EAC extraction logfile from 6. July 2018, 11:55

Immortal / Northern Chaos Gods

Used drive  : HL-DT-STDVDRAM GH22LS50   Adapter: 1  ID: 1

Read mode               : Secure
Utilize accurate stream : Yes
Defeat audio cache      : Yes
Make use of C2 pointers : No

Read offset correction                      : 667
Overread into Lead-In and Lead-Out          : No
Fill up missing offset samples with silence : Yes
Delete leading and trailing silent blocks   : No
Null samples used in CRC calculations       : Yes
Used interface                              : Native Win32 interface for Win NT & 2000

Used output format              : User Defined Encoder
Selected bitrate                : 1024 kBit/s
Quality                         : High
Add ID3 tag                     : No
Command line compressor         : C:\Program Files (x86)\Exact Audio Copy\FLAC\FLAC.EXE
Additional command line options : -6 -V -T "ARTIST=%artist%" -T "TITLE=%title%" -T "ALBUM=%albumtitle%" -T "DATE=%year%" -T "TRACKNUMBER=%tracknr%" -T "GENRE=%genre%" -T "COMMENT=%comment%" -T "BAND=%albuminterpret%" -T "ALBUMARTIST=%albuminterpret%" -T "COMPOSER=%composer%" %haslyrics%--tag-from-file=LYRICS="%lyricsfile%"%haslyrics% -T "DISCNUMBER=%cdnumber%" -T "TOTALDISCS=%totalcds%" -T "TOTALTRACKS=%numtracks%" %hascover%--picture="%coverfile%"%hascover% %source% -o %dest%

TOC of the extracted CD

     Track |   Start  |  Length  | Start sector | End sector
    ---------------------------------------------------------
        1  |  0:00.00 |  4:27.62 |         0    |    20086
        2  |  4:27.62 |  3:52.41 |     20087    |    37527
        3  |  8:20.28 |  4:40.17 |     37528    |    58544
        4  | 13:00.45 |  5:29.00 |     58545    |    83219
        5  | 18:29.45 |  5:08.27 |     83220    |   106346
        6  | 23:37.72 |  5:53.15 |    106347    |   132836
        7  | 29:31.12 |  3:45.63 |    132837    |   149774
        8  | 33:17.00 |  9:14.66 |    149775    |   191390

Range status and errors

Selected range

     Filename F:\Immortal - Northern Chaos Gods.wav

     Peak level 96.6 %
     Extraction speed 1.8 X
     Range quality 100.0 %
     Test CRC CC89472F
     Copy CRC CC89472F
     Copy OK

No errors occurred

End of status report

---- CUETools DB Plugin V2.1.6

[CTDB TOCID: nX3jaXvRpLKN25d7qzk6.rQW6yo-] disk not present in database
Submit result: nX3jaXvRpLKN25d7qzk6.rQW6yo- has been uploaded

==== Log checksum CC249C68C9513B5C54EC33BD5E56980C3A80DCE4057CEF690CC19AE8765FA957 ====[/color]
Immortal - Northern Chaos Gods Flac, imge+cue (Lossles).torrent
Трекер: Зарегистрирован

magnet ссылка

 


Скачать .torrent

26 KB

Статус: проверено (by E IL o T IR i X в 11-Июл-18 23:26)
Зарегистрирован: 11-Июл-18 22:53
Скачан: 17 раз
Размер: 312 MB | 
Поблагодарили:
Скачать (Black Metal) [CD] Immortal - Northern Chaos Gods - 2018, FLAC (image+.cue), lossless торрент
 


Похожие раздачи

Текущее время: 14-Ноя 07:33

Часовой пояс: GMT + 3



Вы не можете начинать темы
Вы не можете отвечать на сообщения
Вы не можете редактировать свои сообщения
Вы не можете удалять свои сообщения
Вы не можете голосовать в опросах
Вы не можете прикреплять файлы к сообщениям
Вы не можете скачивать файлы