Loading...
Error
 

Скачать торрент Шимпанзе / Chimpanzee (Аластер Фовергилл, Марк Линфил)[2012, Документальный, BDRip 1080p] [HEVC] [Омикрон]

 
Автор Сообщение

brother225

post 12-Июл-18 22:21

pic
Шимпанзе / Chimpanzee

Год выпуска: 2012
Страна: Танзания, США
Жанр: документальный
Продолжительность: 01:18:15
Перевод: Профессиональный (одноголосый, закадровый) (Омикрон)
Субтитры: отсутствуют
Режиссёр: Аластер Фовергилл, Марк Линфилд
Описание: Документальный фильм о молодом шимпанзе по имени Оскар от студии Дисней Нейча, автора многочисленных фильмов о живой природе. Мы встречаем Оскара, восхитительного молодого шимпанзе в труднопроходимом тропическом лесу, где его стая занимает территорию, богатую разнообразным пропитанием. Его мать Иша погибает в схватке с конкурирующей стаей шимпанзе, и он безуспешно пытается найти себе другую мать, которая заботилась бы о нем.И в один прекрасный день его принимает вожак стаи... Несмотря на сложный рельеф местности высококачественная съемка сделана с достаточно близкого расстояния, что позволяет подробно и в деталях рассмотреть это захватывающее приключение молодого шимпанзе.
Качество: BDRip 1080p
Формат: MKV
Видео кодек:H265
Аудио кодек: AC3
Видео: HEVC 1920х1080, 23.976 fps 9 537 Kb/s ,0.192 bpp,10bit
Аудио: Английский: AC3, 6 ch , 48 KHz 640 Kb/s
MediaInfo
Complete name : H:\мои раздачи\Chimpanzee_HEVC.mkv
Format : Matroska
Format version : Version 4 / Version 2
File size : 5.56 GiB
Duration : 1 h 18 min
Overall bit rate : 10.2 Mb/s
Encoded date : UTC 2018-07-12 18:58:17
Writing application : mkvmerge v24.0.0 ('Beyond The Pale') 64-bit
Writing library : libebml v1.3.6 + libmatroska v1.4.9

Video
ID : 1
Format : HEVC
Format/Info : High Efficiency Video Coding
Format profile : Main [email protected]@Main
Codec ID : V_MPEGH/ISO/HEVC
Duration : 1 h 18 min
Bit rate : 9 537 kb/s
Width : 1 920 pixels
Height : 1 080 pixels
Display aspect ratio : 16:9
Frame rate mode : Constant
Frame rate : 23.976 (24000/1001) FPS
Color space : YUV
Chroma subsampling : 4:2:0
Bit depth : 10 bits
Bits/(Pixel*Frame) : 0.192
Stream size : 5.21 GiB (94%)
Writing library : x265 2.8+40-0106f9f2f867:[Windows][MSVC 1914][64 bit] 10bit
Default : Yes
Forced : No

Audio
ID : 2
Format : AC-3
Format/Info : Audio Coding 3
Codec ID : A_AC3
Duration : 1 h 18 min
Bit rate mode : Constant
Bit rate : 640 kb/s
Channel(s) : 6 channels
Channel positions : Front: L C R, Side: L R, LFE
Sampling rate : 48.0 kHz
Frame rate : 31.250 FPS (1536 SPF)
Bit depth : 16 bits
Compression mode : Lossy
Stream size : 358 MiB (6%)
Service kind : Complete Main
Default : Yes
Forced : No
Скриншоты
Chimpanzee_HEVC.mkv.torrent
 СЕРЕБРЯНАЯ РАЗДАЧА! СКАЧАННОЕ ЗАСЧИТЫВАЕТСЯ ТОЛЬКО НАПОЛОВИНУ! 
Осталось: [ 23-Июл-18 10:34 ]
Трекер: Зарегистрирован

magnet ссылка

 


Скачать .torrent

28 KB

Статус: проверено (by Snowden в 13-Июл-18 00:23)
Зарегистрирован: 12-Июл-18 22:21
Скачан: 24 раза
Размер: 5.56 GB | 
Поблагодарили:
Скачать Шимпанзе / Chimpanzee (Аластер Фовергилл, Марк Линфил)[2012, Документальный, BDRip 1080p] [HEVC] [Омикрон] торрент
 


Похожие раздачи

Текущее время: 17-Июл 20:11

Часовой пояс: GMT + 3



Вы не можете начинать темы
Вы не можете отвечать на сообщения
Вы не можете редактировать свои сообщения
Вы не можете удалять свои сообщения
Вы не можете голосовать в опросах
Вы не можете прикреплять файлы к сообщениям
Вы не можете скачивать файлы