Loading...
Error
 

Скачать торрент Токийский гуль (ТВ-3) / Tokyo Ghoul:Re [TV] [12 из 12] [Без хардсаба] [RUS(int), JAP+SUB] [2018, приключения, мистика, ужасы, сэйнэн, WEBRip 1080p] [Zone Vision]

 
Автор Сообщение

SzergS

post 04-Авг-18 20:25

Токийский гуль (ТВ-3) / Tokyo Ghoul:Re [TV]
pic

Год выпуска: 2018
Страна: Япония
Жанр: приключения, мистика, ужасы, сэйнэн
Продолжительность: 12 эп. по 00:24:10.
Перевод: Многоголосный закадровый (студия Zone Vision)
Субтитры: Русские, ASS, перевод SovetRomantica
Студия: Pierrot Plus, Shueisha
Режиссёр: Одахиро Ватанабэ
Описание: Много лет прошло с момента разрушения «Антэйку». На данный момент CCG — единственная организация, занимающаяся вопросом по защите от гулей, — решает взять над противником верх при помощи имплантации своим агентам какухо, защитного и охотничьего органа гулей. Имплантация прошла успешно, и, в итоге, был создан отряд «Куинкс» из четырёх человек, менторство над которыми взял Хайсэ Сасаки.

Хотя Хайсэ — первый из куинксов, его происхождение окутано тайнами и загадками, в частности для него самого. Сасаки с уверенностью может сказать, кем он является сейчас, однако не может вспомнить остальные двадцать лет своей жизни и понять, что за странные голоса сопровождают его мысли. Дабы навести порядок в голове, Хайсэ сосредоточивается на актуальных задачах: подготовке своих бойцов, а также достижении своей личной цели — превзойти следователя Кишо Ариму.
Отряд «Куинкс» должен научиться контролировать силу гуля внутри самих себя для того, чтобы продемонстрировать свои силы CCG. Многие другие команды смотрят на куинксов с подозрением, но Хайсэ и его отряд готовы побороться за репутацию.
Пока члены «Куинкса» изо всех сил пытаются реализовать себя, гули из «Древа Аогири» становятся для людей проблемой номер один. Как и всегда, все попытки CCG по уничтожения гулей на корню пресекаются всё новой и новой организацией гулей — более сильной, более умной, более собранной, чем предыдущая. По мере того, как война между человеком и гулем набирает обороты, на поле боя начинают появляться знакомые из прошлых сражений лица.
Качество: WEBRip 1080p
Формат: MKV
Видео: H.264, 3072 kb/s, 1920x1080, 8 bits, 23.976 fps
Аудио: Русский, AAC, 192 kb/s, 48.0 kHz, 2 channels
Аудио: Японский, AAC, 192 kb/s, 48.0 kHz, 2 channels
MediaInfo
General
Unique ID : 211533393244845487037614686386938889031 (0x9F23D981460BC6C49468526C9E96C347)
Complete name : D:\Anime\Tokyo.Ghoul.S03.H.264.2018.WEBRip\Tokyo.Ghoul.S03E01.H.264.2018.WEBRip.mkv
Format : Matroska
Format version : Version 4 / Version 2
File size : 597 MiB
Duration : 24 min 10 s
Overall bit rate : 3 452 kb/s
Encoded date : UTC 2018-04-23 05:39:16
Writing application : mkvmerge v13.0.0 ('The Juggler') 64bit
Writing library : libebml v1.3.4 + libmatroska v1.4.5

Video
ID : 1
Format : AVC
Format/Info : Advanced Video Codec
Format profile : [email protected]
Format settings, CABAC : Yes
Format settings, ReFrames : 4 frames
Codec ID : V_MPEG4/ISO/AVC
Duration : 24 min 10 s
Bit rate : 3 072 kb/s
Width : 1 920 pixels
Height : 1 080 pixels
Display aspect ratio : 16:9
Frame rate mode : Constant
Frame rate : 23.976 (24000/1001) FPS
Original frame rate : 23.976 (23976/1000) FPS
Color space : YUV
Chroma subsampling : 4:2:0
Bit depth : 8 bits
Scan type : Progressive
Bits/(Pixel*Frame) : 0.062
Stream size : 531 MiB (89%)
Writing library : x264 core 120 r2120 0c7dab9
Encoding settings : cabac=1 / ref=4 / deblock=1:1:1 / analyse=0x3:0x113 / me=umh / subme=8 / psy=1 / psy_rd=0.40:0.00 / mixed_ref=1 / me_range=16 / chroma_me=1 / trellis=1 / 8x8dct=1 / cqm=0 / deadzone=21,11 / fast_pskip=1 / chroma_qp_offset=-2 / threads=8 / sliced_threads=0 / nr=0 / decimate=1 / interlaced=0 / bluray_compat=0 / constrained_intra=0 / bframes=3 / b_pyramid=2 / b_adapt=2 / b_bias=0 / direct=3 / weightb=1 / open_gop=0 / weightp=2 / keyint=250 / keyint_min=23 / scenecut=40 / intra_refresh=0 / rc_lookahead=50 / rc=2pass / mbtree=1 / bitrate=3072 / ratetol=1.0 / qcomp=0.60 / qpmin=0 / qpmax=69 / qpstep=4 / cplxblur=20.0 / qblur=0.5 / vbv_maxrate=6144 / vbv_bufsize=15360 / nal_hrd=none / ip_ratio=1.40 / aq=1:0.60
Language : Japanese
Default : Yes
Forced : No

Audio #1
ID : 2
Format : AAC
Format/Info : Advanced Audio Codec
Format profile : LC
Codec ID : A_AAC
Duration : 24 min 10 s
Bit rate : 192 kb/s
Channel(s) : 2 channels
Channel positions : Front: L R
Sampling rate : 48.0 kHz
Frame rate : 46.875 FPS (1024 spf)
Compression mode : Lossy
Stream size : 32.7 MiB (5%)
Title : Zone Vision
Language : Russian
Default : Yes
Forced : No

Audio #2
ID : 3
Format : AAC
Format/Info : Advanced Audio Codec
Format profile : LC
Codec ID : A_AAC
Duration : 24 min 10 s
Bit rate : 192 kb/s
Channel(s) : 2 channels
Channel positions : Front: L R
Sampling rate : 48.0 kHz
Frame rate : 46.875 FPS (1024 spf)
Compression mode : Lossy
Stream size : 32.7 MiB (5%)
Title : Original
Language : Japanese
Default : No
Forced : No

Text
ID : 4
Format : ASS
Codec ID : S_TEXT/ASS
Codec ID/Info : Advanced Sub Station Alpha
Duration : 24 min 1 s
Bit rate : 154 b/s
Count of elements : 362
Compression mode : Lossless
Stream size : 27.3 KiB (0%)
Title : SovetRomantica
Language : Russian
Default : No
Forced : No


Список эпизодов:
Episode 1 Охотники
Episode 2 Частица
Episode 3 Накануне
Episode 4 Аукцион
Episode 5 Кровавая ночь
Episode 6 Последствия
Episode 7 Память о былом
Episode 8 Суета
Episode 9 Призрак
Episode 10 Колебание
Episode 11 Потерянный
Episode 12 Рассвет

Скриншоты

Релиз/Автор рипа: HorribleSubs
Tokyo.Ghoul.S03.H.264.2018.WEBRip.torrent
Трекер: Зарегистрирован

magnet ссылка

 


Скачать .torrent

19 KB

Статус: проверено (by Snowden в 05-Авг-18 10:12)
Зарегистрирован: 04-Авг-18 20:25
Скачан: 54 раза
Размер: 7.17 GB | 
Поблагодарили:
Скачать Токийский гуль (ТВ-3) / Tokyo Ghoul:Re [TV] [12 из 12] [Без хардсаба] [RUS(int), JAP+SUB] [2018, приключения, мистика, ужасы, сэйнэн, WEBRip 1080p] [Zone Vision] торрент
 


Похожие раздачи

SzergS

post 04-Авг-18 20:29 (спустя 3 минуты)

не бросайте в меня камни, 1я раздача, если что не так завтра утром поправлю

Snowden

post 05-Авг-18 02:23 (спустя 5 часов)

 !  Оформить по шаблону http://rustorka.com/forum/viewtopic.php?t=57421
Прочитать правила и исправить все нарушения http://rustorka.com/forum/viewtopic.php?t=172212

MARKUS

post 05-Авг-18 02:27 (спустя 4 минуты)

первый блин комом)

Текущее время: 21-Июл 03:47

Часовой пояс: GMT + 3



Вы не можете начинать темы
Вы не можете отвечать на сообщения
Вы не можете редактировать свои сообщения
Вы не можете удалять свои сообщения
Вы не можете голосовать в опросах
Вы не можете прикреплять файлы к сообщениям
Вы не можете скачивать файлы