Loading...
Error
 

Скачать торрент Блам! / Blame! Movie (Hiroyuki Seshita) [2017, аниме, мультфильм, фантастика, WEBRip 1080p] [BadBajo]

 
Автор Сообщение

Wanterlude

post 26-Май-17 15:13



Блам! / Blame! Movie


pic
Информация о фильме:

Год выпуска: 2017
Страна: Япония
Жанр: аниме, мультфильм, фантастика, боевик
Продолжительность: 01:46:01
Перевод: Любительский [одноголосый] [BadBajo]
Субтитры: Английские
Режиссер: Хироюки Сэсита / Hiroyuki Seshita
В ролях: Сора Амамия (Zuru, озвучка), Кана Ханадзава (Cibo, озвучка), Сакурай Такахиро (Killy, озвучка), Ая Судзаки (Tae, озвучка), Кадзухиро Ямадзи (Oyassan, озвучка)

Описание фильма:

Далёкое будущее. После распространения инфекции, люди потеряли связь с сетевой сферой. Из под контроля вышли роботы строители и стражники. Строители бесконечно и бесконтрольно перестраивают город Стражники же объявили жителей города вне закона и истребляют их как только заметят. Кучке людей удается выживать в одной деревушке благодаря периметру, за который стражникам не пройти. Однако, отсутствие пищи заставляет людей, время от времени, покидать свою деревню в поисках пропитания. Однажды один из отрядов встречает чужестранца по имени Килли. Килли ведет поиск генома сетевого терминала, чтобы с его помощью вернуть людям власть над машинами.

Технические Данные:

Качество видео: WEBRip 1080p
Формат: MKV
Видео кодек: AVC
Аудио кодек: AC3
Видео: AVC, 1920x800 (2.40:1), 5227 kbps, 23,976 fps, 0,142 bpp
Аудио №1: AC3, 5.1, 48 kHz, 384 kbps | Русский
Аудио №2: AC3, 5.1, 48 kHz, 384 kbps | Английский
Рейтинги
Media Info
General
Unique ID : 233287194102227803025645243920125962692 (0xAF817AB1DAF1DBF4A62A3966983AA9C4)
Complete name : E:\Blame.2017.1080p.NF.WEBRip.DD5.1.x264_rus_BadBajo.mkv
Format : Matroska
Format version : Version 4 / Version 2
File size : 4.44 GiB
Duration : 1 h 46 min
Overall bit rate : 5 998 kb/s
Movie name : Blame.2017.1080p.NF.WEBRip.DD5.1.x264_rus_BadBajo
Encoded date : UTC 2017-05-26 07:42:33
Writing application : mkvmerge v9.5.0 ('Quiet Fire') 64bit
Writing library : libebml v1.3.4 + libmatroska v1.4.5
Cover : Yes
Attachments : cover.jpg

Video
ID : 1
Format : AVC
Format/Info : Advanced Video Codec
Format profile : [email protected]
Format settings, CABAC : Yes
Format settings, ReFrames : 5 frames
Codec ID : V_MPEG4/ISO/AVC
Duration : 1 h 46 min
Bit rate : 5 228 kb/s
Width : 1 920 pixels
Height : 800 pixels
Display aspect ratio : 2.40:1
Frame rate mode : Constant
Frame rate : 23.976 (24000/1001) FPS
Color space : YUV
Chroma subsampling : 4:2:0
Bit depth : 8 bits
Scan type : Progressive
Bits/(Pixel*Frame) : 0.142
Stream size : 3.87 GiB (87%)
Title : Blame.2017.1080p.NF.WEBRip.DD5.1.x264-SB
Writing library : x264 core 148 r2744 b97ae06
Encoding settings : cabac=1 / ref=5 / deblock=1:-3:-3 / analyse=0x3:0x133 / me=umh / subme=9 / psy=1 / psy_rd=1.05:0.10 / mixed_ref=1 / me_range=48 / chroma_me=1 / trellis=2 / 8x8dct=1 / cqm=0 / deadzone=21,11 / fast_pskip=1 / chroma_qp_offset=-3 / threads=18 / lookahead_threads=1 / sliced_threads=0 / slices=4 / nr=0 / decimate=1 / interlaced=0 / bluray_compat=0 / constrained_intra=0 / bframes=3 / b_pyramid=2 / b_adapt=2 / b_bias=0 / direct=3 / weightb=1 / open_gop=0 / weightp=2 / keyint=240 / keyint_min=23 / scenecut=40 / intra_refresh=0 / rc_lookahead=60 / rc=crf / mbtree=1 / crf=14.0 / qcomp=0.60 / qpmin=0 / qpmax=69 / qpstep=4 / vbv_maxrate=16520 / vbv_bufsize=17525 / crf_max=0.0 / nal_hrd=none / filler=0 / ip_ratio=1.40 / aq=3:0.85
Default : Yes
Forced : No

Audio #1
ID : 2
Format : AC-3
Format/Info : Audio Coding 3
Mode extension : CM (complete main)
Format settings, Endianness : Big
Codec ID : A_AC3
Duration : 1 h 46 min
Bit rate mode : Constant
Bit rate : 384 kb/s
Channel(s) : 6 channels
Channel positions : Front: L C R, Side: L R, LFE
Sampling rate : 48.0 kHz
Frame rate : 31.250 FPS (1536 spf)
Compression mode : Lossy
Stream size : 291 MiB (6%)
Title : Blame.2017_rus_BadBajo
Language : Russian
Default : Yes
Forced : Yes

Audio #2
ID : 3
Format : AC-3
Format/Info : Audio Coding 3
Mode extension : CM (complete main)
Format settings, Endianness : Big
Codec ID : A_AC3
Duration : 1 h 46 min
Bit rate mode : Constant
Bit rate : 384 kb/s
Channel(s) : 6 channels
Channel positions : Front: L C R, Side: L R, LFE
Sampling rate : 48.0 kHz
Frame rate : 31.250 FPS (1536 spf)
Compression mode : Lossy
Stream size : 291 MiB (6%)
Title : Blame.2017.1080p.NF.WEBRip.DD5.1.x264-SB
Language : English
Default : No
Forced : No

Text
ID : 4
Format : UTF-8
Codec ID : S_TEXT/UTF8
Codec ID/Info : UTF-8 Plain Text
Duration : 1 h 45 min
Bit rate : 34 b/s
Count of elements : 983
Stream size : 26.3 KiB (0%)
Language : English
Default : No
Forced : No
Скриншоты
Blame!.2017.BadBajo.torrent
Трекер: Зарегистрирован

magnet ссылка

 


Скачать .torrent

12 KB

Статус: проверено (by Snowden в 26-Май-17 16:53)
Зарегистрирован: 26-Май-17 15:13
Скачан: 211 раз
Размер: 4.44 GB | 
Поблагодарили:
Скачать Блам! / Blame! Movie (Hiroyuki Seshita) [2017, аниме, мультфильм, фантастика, WEBRip 1080p] [BadBajo] торрент
 


Похожие раздачи

post 07-Авг-18 13:52 (спустя 1 год 2 месяца)

Топик был перенесен из форума Новинки в форум HDTVRip / HDTV 720 / 1080


Snowden
 

Текущее время: 15-Ноя 20:52

Часовой пояс: GMT + 3



Вы не можете начинать темы
Вы не можете отвечать на сообщения
Вы не можете редактировать свои сообщения
Вы не можете удалять свои сообщения
Вы не можете голосовать в опросах
Вы не можете прикреплять файлы к сообщениям
Вы не можете скачивать файлы