Loading...
Error
 

Скачать торрент Блам! / Blame! Movie (Хироюки Сэсита) [2017, аниме, мультфильм, фантастика, боевик, WEBRip 1080p] [AlexFilm]

 
Автор Сообщение

DENZEL519

post 25-Июн-17 22:56

Блам! / Blame! Movie
-

pic
Год выпуска: 2017
Страна: Япония
Жанр: аниме, мультфильм, фантастика, боевик
Продолжительность: 01:46:00
Перевод: Любительский многоголосый [AlexFilm]
Субтитры: Нет
Режиссер: Хироюки Сэсита
Сценарий: Садаюки Мурай, Цутому Нихэй
Композитор: Ёко Канно
В ролях: Сора Амамия (Zuru, озвучка), Кана Ханадзава (Cibo, озвучка), Сакурай Такахиро (Killy, озвучка), Ая Судзаки (Tae, озвучка), Кадзухиро Ямадзи (Oyassan, озвучка)
pic pic pic pic


Описание: Далёкое будущее. После распространения инфекции люди теряют связь с сетевой сферой. Из под контроля выходят роботы-строители и стражники. Строители бесконтрольно перестраивают город, стражники объявляют жителей города вне закона и принимаются за их истребление. Группе людей удаётся выжить в одной деревушке благодаря периметру, за который стражникам не пройти. Однако отсутствие пищи заставляет людей время от времени покидать свою деревню и отправляться на поиски пропитания. Однажды один из отрядов встречает чужестранца по имени Килли. Он ищет геном сетевого терминала, чтобы с его помощью вернуть людям власть над машинами.


Качество: WEBRip 1080p
Формат: MKV
Видео кодек: AVC
Аудио кодек: AC3
Видео: 1920x800 (2.40:1), 23.976 fps, AVC, 5 110 Kbps
Аудио: Аудио #1: AC3, 384 Kbps, 48.0 KHz, 6 ch [Rus]
Аудио #2: AC3, 384 Kbps, 48.0 KHz, 6 ch [Eng]

pic | pic | pic

МедиаИнфо

Код:

General
Unique ID                                : 207531580632005859529372939961409979644 (0x9C2120E8F2F0A9429827A4820FE7C4FC)
Complete name                            : Blame!.2017.WEBRip.1080p.Rus.Eng.AlexFilm.mkv
Format                                   : Matroska
Format version                           : Version 4 / Version 2
File size                                : 4.44 GiB
Duration                                 : 1h 46mn
Overall bit rate                         : 5 997 Kbps
Encoded date                             : UTC 2017-06-24 06:48:24
Writing application                      : mkvmerge v6.1.0 ('Old Devil') built on Mar  4 2013 09:10:42
Writing library                          : libebml v1.3.0 + libmatroska v1.4.0

Video
ID                                       : 1
Format                                   : AVC
Format/Info                              : Advanced Video Codec
Format profile                           : [email protected]
Format settings, CABAC                   : Yes
Format settings, ReFrames                : 5 frames
Codec ID                                 : V_MPEG4/ISO/AVC
Duration                                 : 1h 46mn
Bit rate                                 : 5 110 Kbps
Width                                    : 1 920 pixels
Height                                   : 800 pixels
Display aspect ratio                     : 2.40:1
Frame rate mode                          : Constant
Frame rate                               : 23.976 fps
Color space                              : YUV
Chroma subsampling                       : 4:2:0
Bit depth                                : 8 bits
Scan type                                : Progressive
Bits/(Pixel*Frame)                       : 0.139
Stream size                              : 3.78 GiB (85%)
Title                                    : AlexFilm
Writing library                          : x264 core 148 r2744 b97ae06
Encoding settings                        : cabac=1 / ref=5 / deblock=1:-3:-3 / analyse=0x3:0x133 / me=umh / subme=9 / psy=1 / psy_rd=1.05:0.10 / mixed_ref=1 / me_range=48 / chroma_me=1 / trellis=2 / 8x8dct=1 / cqm=0 / deadzone=21,11 / fast_pskip=1 / chroma_qp_offset=-3 / threads=18 / lookahead_threads=1 / sliced_threads=0 / slices=4 / nr=0 / decimate=1 / interlaced=0 / bluray_compat=0 / constrained_intra=0 / bframes=3 / b_pyramid=2 / b_adapt=2 / b_bias=0 / direct=3 / weightb=1 / open_gop=0 / weightp=2 / keyint=240 / keyint_min=23 / scenecut=40 / intra_refresh=0 / rc_lookahead=60 / rc=crf / mbtree=1 / crf=14.0 / qcomp=0.60 / qpmin=0 / qpmax=69 / qpstep=4 / vbv_maxrate=16520 / vbv_bufsize=17525 / crf_max=0.0 / nal_hrd=none / filler=0 / ip_ratio=1.40 / aq=3:0.85
Default                                  : Yes
Forced                                   : No

Audio #1
ID                                       : 2
Format                                   : AC-3
Format/Info                              : Audio Coding 3
Mode extension                           : CM (complete main)
Format settings, Endianness              : Big
Codec ID                                 : A_AC3
Duration                                 : 1h 46mn
Bit rate mode                            : Constant
Bit rate                                 : 384 Kbps
Channel(s)                               : 6 channels
Channel positions                        : Front: L C R, Side: L R, LFE
Sampling rate                            : 48.0 KHz
Bit depth                                : 16 bits
Compression mode                         : Lossy
Stream size                              : 291 MiB (6%)
Title                                    : DD 5.1 AlexFilm
Language                                 : Russian
Default                                  : Yes
Forced                                   : No

Audio #2
ID                                       : 3
Format                                   : AC-3
Format/Info                              : Audio Coding 3
Mode extension                           : CM (complete main)
Format settings, Endianness              : Big
Codec ID                                 : A_AC3
Duration                                 : 1h 46mn
Bit rate mode                            : Constant
Bit rate                                 : 384 Kbps
Channel(s)                               : 6 channels
Channel positions                        : Front: L C R, Side: L R, LFE
Sampling rate                            : 48.0 KHz
Bit depth                                : 16 bits
Compression mode                         : Lossy
Stream size                              : 291 MiB (6%)
Title                                    : Eng
Language                                 : English
Default                                  : No
Forced                                   : No

Доп. информация
Премьера (мир): 20 мая 2017

Скриншоты


Время раздачи: 24/7 (до появления первых 3-5 скачавших)
© Оформление by DENZEL519 for http://rustorka.com


Blame!.2017.WEBRip.1080p.Rus.Eng.AlexFilm.mkv.torrent
Трекер: Зарегистрирован

magnet ссылка

 


Скачать .torrent

23 KB

Статус: проверено (by DENZEL519 в 25-Июн-17 22:57)
Зарегистрирован: 25-Июн-17 22:56
Скачан: 760 раз
Размер: 4.44 GB | 
Поблагодарили:
Скачать Блам! / Blame! Movie (Хироюки Сэсита) [2017, аниме, мультфильм, фантастика, боевик, WEBRip 1080p] [AlexFilm] торрент
 


Похожие раздачи

post 26-Июн-17 03:46 (спустя 4 часа)

Топик был перенесен из форума WEBRip / HDTVRip в форум Новинки


Snowden
 

Worl0k

post 26-Июн-17 14:25 (спустя 15 часов)

Хорошо, но всю утопичность данного произведения по урезаному хронометражу не передали.

post 07-Авг-18 13:52 (спустя 1 год 1 месяц)

Топик был перенесен из форума Новинки в форум HDTVRip / HDTV 720 / 1080


Snowden
 

Текущее время: 14-Ноя 19:20

Часовой пояс: GMT + 3



Вы не можете начинать темы
Вы не можете отвечать на сообщения
Вы не можете редактировать свои сообщения
Вы не можете удалять свои сообщения
Вы не можете голосовать в опросах
Вы не можете прикреплять файлы к сообщениям
Вы не можете скачивать файлы