Loading...
Error
 

Скачать торрент (Hard & Heavy) Michael Schinkel's Eternal Flame - Smoke On The Mountain - 2018 [FLAC, image +.cue, lossless]

 
Автор Сообщение

trygg

post 11-Авг-18 13:33


Michael Schinkel's Eternal Flame - Smoke On The Mountain


pic
Год издания:
Страна: Germany pic
Жанр: Hard & Heavy
Продолжительность: 00:51:40
Лейбл издания: Roar Recordspic
Страна-выпуска диска: EU
Номер по каталогу: ROAR1805CD
Формат: FLAC
Битрейт аудио: Lossless
Тип рипа: image +.cue
Наличие сканов в содержимом раздачи: да

pic
Трэклист
pic
01. Ignition (1:59)
02. Smoke On The Mountain (feat. Mark Boals) (4:35)
03. This Is My Life (3:59)
04. Queen Of The Hill (4:47)
05. You Can Save Me (4:36)
06. Whatcha Gonna Do (3:35)
07. I Believe In This Miracle (feat. Mark Boals) (3:20)
08. Got A Rock & Roll Fever (feat. Goran Edman) (3:47)
09. Out In The Dark (4:43)
10. Dreaming (5:12)
11. Take Me There For A Night (4:15)
12. Tease My Love (feat. Goran Edman) (4:46)
13. Close To The End (2:07)

pic
Лог создания рипа

Код:

Exact Audio Copy V1.3 from 2. September 2016

EAC extraction logfile from 22. June 2018, 20:17

Eternal Flame / Smoke On The Mountain

Used drive  : ATAPI   iHAS122   W   Adapter: 2  ID: 0

Read mode               : Secure
Utilize accurate stream : Yes
Defeat audio cache      : Yes
Make use of C2 pointers : No

Read offset correction                      : 48
Overread into Lead-In and Lead-Out          : No
Fill up missing offset samples with silence : Yes
Delete leading and trailing silent blocks   : No
Null samples used in CRC calculations       : Yes
Used interface                              : Installed external ASPI interface

Used output format              : User Defined Encoder
Selected bitrate                : 1024 kBit/s
Quality                         : High
Add ID3 tag                     : No
Command line compressor         : C:\Program Files\FLAC\flac.exe
Additional command line options : -V -8 -T "Date=%year%" -T "Genre=%genre%" %source%

TOC of the extracted CD

     Track |   Start  |  Length  | Start sector | End sector
    ---------------------------------------------------------
        1  |  0:00.00 |  1:58.63 |         0    |     8912
        2  |  1:58.63 |  4:35.10 |      8913    |    29547
        3  |  6:33.73 |  3:58.51 |     29548    |    47448
        4  | 10:32.49 |  4:46.52 |     47449    |    68950
        5  | 15:19.26 |  4:35.40 |     68951    |    89615
        6  | 19:54.66 |  3:34.53 |     89616    |   105718
        7  | 23:29.44 |  3:20.26 |    105719    |   120744
        8  | 26:49.70 |  3:47.15 |    120745    |   137784
        9  | 30:37.10 |  4:42.55 |    137785    |   158989
       10  | 35:19.65 |  5:11.62 |    158990    |   182376
       11  | 40:31.52 |  4:15.27 |    182377    |   201528
       12  | 44:47.04 |  4:46.00 |    201529    |   222978
       13  | 49:33.04 |  2:06.54 |    222979    |   232482

Range status and errors

Selected range

     Filename D:\Eternal Flame - Smoke On The Mountain.wav

     Peak level 94.3 %
     Extraction speed 3.0 X
     Range quality 100.0 %
     Test CRC 4D684C22
     Copy CRC 4D684C22
     Copy OK

No errors occurred

AccurateRip summary

Track  1  not present in database
Track  2  not present in database
Track  3  not present in database
Track  4  not present in database
Track  5  not present in database
Track  6  not present in database
Track  7  not present in database
Track  8  not present in database
Track  9  not present in database
Track 10  not present in database
Track 11  not present in database
Track 12  not present in database
Track 13  not present in database

None of the tracks are present in the AccurateRip database

End of status report
Индексная карта (non-compilant .cue)

Код:

REM GENRE "Heavy Metal"
REM DATE 2018
REM DISCID A70C1B0D
REM COMMENT "ExactAudioCopy v1.3"
PERFORMER "Eternal Flame"
TITLE "Smoke On The Mountain"
FILE "Eternal Flame - Smoke On The Mountain.flac" WAVE
  TRACK 01 AUDIO
    TITLE "Ignition"
    PERFORMER "Eternal Flame"
    INDEX 01 00:00:00
  TRACK 02 AUDIO
    TITLE "Smoke On The Mountain (feat. Mark Boals)"
    PERFORMER "Eternal Flame"
    INDEX 01 01:58:63
  TRACK 03 AUDIO
    TITLE "This Is My Life"
    PERFORMER "Eternal Flame"
    INDEX 01 06:33:73
  TRACK 04 AUDIO
    TITLE "Queen Of The Hill"
    PERFORMER "Eternal Flame"
    INDEX 01 10:32:49
  TRACK 05 AUDIO
    TITLE "You Can Save Me"
    PERFORMER "Eternal Flame"
    INDEX 01 15:19:26
  TRACK 06 AUDIO
    TITLE "Whatcha Gonna Do"
    PERFORMER "Eternal Flame"
    INDEX 01 19:54:66
  TRACK 07 AUDIO
    TITLE "I Believe In This Miracle (feat. Mark Boals)"
    PERFORMER "Eternal Flame"
    INDEX 01 23:29:44
  TRACK 08 AUDIO
    TITLE "Got A Rock & Roll Fever (feat. Goran Edman)"
    PERFORMER "Eternal Flame"
    INDEX 01 26:49:70
  TRACK 09 AUDIO
    TITLE "Out In The Dark"
    PERFORMER "Eternal Flame"
    INDEX 01 30:37:10
  TRACK 10 AUDIO
    TITLE "Dreaming"
    PERFORMER "Eternal Flame"
    INDEX 01 35:19:65
  TRACK 11 AUDIO
    TITLE "Take Me There For A Night"
    PERFORMER "Eternal Flame"
    INDEX 01 40:31:52
  TRACK 12 AUDIO
    TITLE "Tease My Love (feat. Goran Edman)"
    PERFORMER "Eternal Flame"
    INDEX 01 44:47:04
  TRACK 13 AUDIO
    TITLE "Close To The End"
    PERFORMER "Eternal Flame"
    INDEX 01 49:33:04

pic
для ознакомления:


pic
pic
Michael Schinkel's Eternal Flame - 2018 - Smoke On The Mountain.torrent
Трекер: Зарегистрирован

magnet ссылка

 


Скачать .torrent

18 KB

Статус: проверено (by Snowden в 11-Авг-18 14:03)
Зарегистрирован: 11-Авг-18 13:33
Скачан: 9 раз
Размер: 419 MB | 
Поблагодарили:
Скачать (Hard & Heavy) Michael Schinkel's Eternal Flame - Smoke On The Mountain - 2018 [FLAC, image +.cue, lossless] торрент
 


Похожие раздачи

Текущее время: 16-Авг 06:50

Часовой пояс: GMT + 3



Вы не можете начинать темы
Вы не можете отвечать на сообщения
Вы не можете редактировать свои сообщения
Вы не можете удалять свои сообщения
Вы не можете голосовать в опросах
Вы не можете прикреплять файлы к сообщениям
Вы не можете скачивать файлы