Loading...
Error
 

Скачать торрент (Heavy Metal) Forged In Blood - Forged In Blood - 2018 [FLAC, image +.cue, lossless]

 
Автор Сообщение

trygg

post 11-Авг-18 13:35


Forged In Blood - Forged In Blood


pic
Год издания: 2018
Страна: Italy pic
Жанр: Heavy Metal
Продолжительность: 00:46:58
Лейбл издания: Punishmen18 Records
Страна-выпуска диска: Italy pic
Номер по каталогу: P18R 137
Формат: FLAC
Битрейт аудио: Lossless
Тип рипа: image +.cue
Наличие сканов в содержимом раздачи: да

pic
Трэклист
pic
01. Rebellion, My Name (4:29)
02. For The Unborn (3:32)
03. Game Is On (5:14)
04. Never Pay To Play (4:16)
05. A Taste Of Heaven (1:18)
06. Fine Dark Line (5:03)
07. Black Renegade (3:07)
08. It's On The Blade (4:43)
09. Aylan's Eyes (4:57)
10. Holy Water (5:45)
11. Catharsis (4:34)

pic
Лог создания рипа

Код:

Exact Audio Copy V1.3 from 2. September 2016

Отчёт EAC об извлечении, выполненном 31. мая 2018, 19:05

Forged In Blood / Forged In Blood

Дисковод: TSSTcorpCDDVDW SE-208DB   Adapter: 1  ID: 2

Режим чтения                 : Достоверность
Использование точного потока : Да
Отключение кэша аудио        : Да
Использование указателей C2  : Нет

Коррекция смещения при чтении                     : 6
Способность читать области Lead-in и Lead-out     : Нет
Заполнение пропущенных сэмплов тишиной            : Да
Удаление блоков с тишиной в начале и конце        : Нет
При вычислениях CRC использовались нулевые сэмплы : Да
Интерфейс                                         : Встроенный Win32-интерфейс для Win NT/2000

Выходной формат          : Пользовательский кодировщик
Выбранный битрейт        : 1024 kBit/s
Качество                 : Высокий
Добавление ID3-тега      : Да
Утилита сжатия           : C:\Program Files (x86)\Exact Audio Copy\Flac\flac.exe
Дополнительные параметры : -V -8 -T "Date=%year%" -T "Genre=%genre%" %source%

TOC извлечённого CD

     Трек |   Старт  | Длительность | Начальный сектор | Конечный сектор
    ---------------------------------------------------------------------
       1  |  0:00.00 |    4:29.03   |           0      |      20177
       2  |  4:29.03 |    3:31.45   |       20178      |      36047
       3  |  8:00.48 |    5:14.36   |       36048      |      59633
       4  | 13:15.09 |    4:16.27   |       59634      |      78860
       5  | 17:31.36 |    1:18.18   |       78861      |      84728
       6  | 18:49.54 |    5:03.29   |       84729      |     107482
       7  | 23:53.08 |    3:07.12   |      107483      |     121519
       8  | 27:00.20 |    4:43.09   |      121520      |     142753
       9  | 31:43.29 |    4:56.49   |      142754      |     165002
      10  | 36:40.03 |    5:44.53   |      165003      |     190855
      11  | 42:24.56 |    4:33.55   |      190856      |     211385

Характеристики диапазона извлечения и сообщения об ошибках

Выбранный диапазон

     Имя файла E:\Rutracker\DissidentAggressor\Forged In Blood\2018. Forged In Blood\Forged In Blood - Forged In Blood.wav

     Пиковый уровень 99.8 %
     Скорость извлечения 1.5 X
     Качество диапазона 100.0 %
     CRC теста 9E5C81EA
     CRC копии 9E5C81EA
     Копирование... OK

Ошибок не произошло

AccurateRip: сводка

Трек  1  отсутствует в базе данных
Трек  2  отсутствует в базе данных
Трек  3  отсутствует в базе данных
Трек  4  отсутствует в базе данных
Трек  5  отсутствует в базе данных
Трек  6  отсутствует в базе данных
Трек  7  отсутствует в базе данных
Трек  8  отсутствует в базе данных
Трек  9  отсутствует в базе данных
Трек 10  отсутствует в базе данных
Трек 11  отсутствует в базе данных

Ни одного трека нет в базе AccurateRip

Конец отчёта
Индексная карта (non-compilant .cue)

Код:

REM GENRE "Heavy Metal"
REM DATE 2018
REM DISCID 7E0B020B
REM COMMENT "ExactAudioCopy v1.3"
PERFORMER "Forged In Blood"
TITLE "Forged In Blood"
REM COMPOSER ""
FILE "Forged In Blood - Forged In Blood.flac" WAVE
  TRACK 01 AUDIO
    TITLE "Rebellion, My Name"
    PERFORMER "Forged In Blood"
    REM COMPOSER ""
    INDEX 01 00:00:00
  TRACK 02 AUDIO
    TITLE "For The Unborn"
    PERFORMER "Forged In Blood"
    REM COMPOSER ""
    INDEX 01 04:29:03
  TRACK 03 AUDIO
    TITLE "Game Is On"
    PERFORMER "Forged In Blood"
    REM COMPOSER ""
    INDEX 01 08:00:48
  TRACK 04 AUDIO
    TITLE "Never Pay To Play"
    PERFORMER "Forged In Blood"
    REM COMPOSER ""
    INDEX 01 13:15:09
  TRACK 05 AUDIO
    TITLE "A Taste Of Heaven"
    PERFORMER "Forged In Blood"
    REM COMPOSER ""
    INDEX 01 17:31:36
  TRACK 06 AUDIO
    TITLE "Fine Dark Line"
    PERFORMER "Forged In Blood"
    REM COMPOSER ""
    INDEX 01 18:49:54
  TRACK 07 AUDIO
    TITLE "Black Renegade"
    PERFORMER "Forged In Blood"
    REM COMPOSER ""
    INDEX 01 23:53:08
  TRACK 08 AUDIO
    TITLE "It's On The Blade"
    PERFORMER "Forged In Blood"
    REM COMPOSER ""
    INDEX 01 27:00:20
  TRACK 09 AUDIO
    TITLE "Aylan's Eyes"
    PERFORMER "Forged In Blood"
    REM COMPOSER ""
    INDEX 01 31:43:29
  TRACK 10 AUDIO
    TITLE "Holy Water"
    PERFORMER "Forged In Blood"
    REM COMPOSER ""
    INDEX 01 36:40:03
  TRACK 11 AUDIO
    TITLE "Catharsis"
    PERFORMER "Forged In Blood"
    REM COMPOSER ""
    INDEX 01 42:24:56

pic
для ознакомления:


pic
pic
Forged In Blood - 2018 - Forged In Blood.torrent
Трекер: Зарегистрирован

magnet ссылка

 


Скачать .torrent

17 KB

Статус: проверено (by Snowden в 11-Авг-18 14:04)
Зарегистрирован: 11-Авг-18 13:35
Скачан: 7 раз
Размер: 376 MB | 
Поблагодарили:
Скачать (Heavy Metal) Forged In Blood - Forged In Blood - 2018 [FLAC, image +.cue, lossless] торрент
 


Похожие раздачи

Текущее время: 23-Окт 14:34

Часовой пояс: GMT + 3



Вы не можете начинать темы
Вы не можете отвечать на сообщения
Вы не можете редактировать свои сообщения
Вы не можете удалять свои сообщения
Вы не можете голосовать в опросах
Вы не можете прикреплять файлы к сообщениям
Вы не можете скачивать файлы