Loading...
Error
 

Скачать торрент (Heavy Metal) Stormwitch - Bound To The Witch (Limited Edition) - 2018 [FLAC, image +.cue, lossless]

 
Автор Сообщение

trygg

post 11-Авг-18 13:38


Stormwitch - Bound To The Witch (Limited Edition)


pic
Год издания: 2018
Страна: Germany pic
Жанр: Heavy Metal
Продолжительность: 01:05:44
Лейбл издания: Massare Records
Страна-выпуска диска: Germany pic
Номер по каталогу: MAS DP1004
Формат: FLAC
Битрейт аудио: Lossless
Тип рипа: image +.cue
Наличие сканов в содержимом раздачи: да

pic
Трэклист
pic
01. Songs of Steel (4:18)
02. Odin's Ravens (4:46)
03. The Choir of the Dead (4:41)
04. Bound to the Witch (3:51)
05. Arya (4:40)
06. Stormwitch (4:25)
07. Life is Not a Dream (4:47)
08. King George (6:03)
09. Ancient Times (3:56)
10. The Ghost of Mansfield Park (5:34)
11. Nightingale (5:10)
12. Stronger Than Heaven (Re-Recorded) (Bonus Track) (4:52)
13. Rats in the Attic (Re-Recorded) (Bonus Track) (3:40)
14. Priest of Evil (Re-Recorded) (Bonus Track) (4:59)

pic
Лог создания рипа

Код:

Exact Audio Copy V1.3 from 2. September 2016

EAC extraction logfile from 26. June 2018, 20:35

Stormwitch / Bound to the Witch

Used drive  : ATAPI   iHAS122   W   Adapter: 2  ID: 0

Read mode               : Secure
Utilize accurate stream : Yes
Defeat audio cache      : Yes
Make use of C2 pointers : No

Read offset correction                      : 48
Overread into Lead-In and Lead-Out          : No
Fill up missing offset samples with silence : Yes
Delete leading and trailing silent blocks   : No
Null samples used in CRC calculations       : Yes
Used interface                              : Installed external ASPI interface

Used output format              : User Defined Encoder
Selected bitrate                : 1024 kBit/s
Quality                         : High
Add ID3 tag                     : No
Command line compressor         : C:\Program Files\FLAC\flac.exe
Additional command line options : -V -8 -T "Date=%year%" -T "Genre=%genre%" %source%

TOC of the extracted CD

     Track |   Start  |  Length  | Start sector | End sector
    ---------------------------------------------------------
        1  |  0:00.00 |  4:17.71 |         0    |    19345
        2  |  4:17.71 |  4:45.65 |     19346    |    40785
        3  |  9:03.61 |  4:41.13 |     40786    |    61873
        4  | 13:44.74 |  3:51.03 |     61874    |    79201
        5  | 17:36.02 |  4:40.27 |     79202    |   100228
        6  | 22:16.29 |  4:25.19 |    100229    |   120122
        7  | 26:41.48 |  4:47.25 |    120123    |   141672
        8  | 31:28.73 |  6:03.04 |    141673    |   168901
        9  | 37:32.02 |  3:55.64 |    168902    |   186590
       10  | 41:27.66 |  5:34.05 |    186591    |   211645
       11  | 47:01.71 |  5:09.55 |    211646    |   234875
       12  | 52:11.51 |  4:52.10 |    234876    |   256785
       13  | 57:03.61 |  3:40.25 |    256786    |   273310
       14  | 60:44.11 |  4:59.33 |    273311    |   295768

Range status and errors

Selected range

     Filename D:\Stormwitch - Bound to the Witch.wav

     Peak level 100.0 %
     Extraction speed 4.2 X
     Range quality 100.0 %
     Test CRC 5EF35BF0
     Copy CRC 5EF35BF0
     Copy OK

No errors occurred

AccurateRip summary

Track  1  not present in database
Track  2  not present in database
Track  3  not present in database
Track  4  not present in database
Track  5  not present in database
Track  6  not present in database
Track  7  not present in database
Track  8  not present in database
Track  9  not present in database
Track 10  not present in database
Track 11  not present in database
Track 12  not present in database
Track 13  not present in database
Track 14  not present in database

None of the tracks are present in the AccurateRip database

End of status report
Индексная карта (non-compilant .cue)

Код:

REM GENRE "Heavy Metal"
REM DATE 2018
REM DISCID C70F670E
REM COMMENT "ExactAudioCopy v1.3"
PERFORMER "Stormwitch"
TITLE "Bound to the Witch"
FILE "Stormwitch - Bound to the Witch.flac" WAVE
  TRACK 01 AUDIO
    TITLE "Songs of Steel"
    PERFORMER "Stormwitch"
    INDEX 01 00:00:00
  TRACK 02 AUDIO
    TITLE "Odin's Ravens"
    PERFORMER "Stormwitch"
    INDEX 01 04:17:71
  TRACK 03 AUDIO
    TITLE "The Choir of the Dead"
    PERFORMER "Stormwitch"
    INDEX 01 09:03:61
  TRACK 04 AUDIO
    TITLE "Bound to the Witch"
    PERFORMER "Stormwitch"
    INDEX 01 13:44:74
  TRACK 05 AUDIO
    TITLE "Arya"
    PERFORMER "Stormwitch"
    INDEX 01 17:36:02
  TRACK 06 AUDIO
    TITLE "Stormwitch"
    PERFORMER "Stormwitch"
    INDEX 01 22:16:29
  TRACK 07 AUDIO
    TITLE "Life is Not a Dream"
    PERFORMER "Stormwitch"
    INDEX 01 26:41:48
  TRACK 08 AUDIO
    TITLE "King George"
    PERFORMER "Stormwitch"
    INDEX 01 31:28:73
  TRACK 09 AUDIO
    TITLE "Ancient Times"
    PERFORMER "Stormwitch"
    INDEX 01 37:32:02
  TRACK 10 AUDIO
    TITLE "The Ghost of Mansfield Park"
    PERFORMER "Stormwitch"
    INDEX 01 41:27:66
  TRACK 11 AUDIO
    TITLE "Nightingale"
    PERFORMER "Stormwitch"
    INDEX 01 47:01:71
  TRACK 12 AUDIO
    TITLE "Stronger Than Heaven (Re-Recorded) (Bonus Track)"
    PERFORMER "Stormwitch"
    INDEX 01 52:11:51
  TRACK 13 AUDIO
    TITLE "Rats in the Attic (Re-Recorded) (Bonus Track)"
    PERFORMER "Stormwitch"
    INDEX 01 57:03:61
  TRACK 14 AUDIO
    TITLE "Priest of Evil (Re-Recorded) (Bonus Track)"
    PERFORMER "Stormwitch"
    INDEX 01 60:44:11

pic
для ознакомления:


pic
pic
Stormwitch - 2018 - Bound To The Witch.torrent
Трекер: Зарегистрирован

magnet ссылка

 


Скачать .torrent

13 KB

Статус: проверено (by Snowden в 11-Авг-18 14:04)
Зарегистрирован: 11-Авг-18 13:38
Скачан: 7 раз
Размер: 572 MB | 
Поблагодарили:
Скачать (Heavy Metal) Stormwitch - Bound To The Witch (Limited Edition) - 2018 [FLAC, image +.cue, lossless] торрент
 


Похожие раздачи

Текущее время: 16-Авг 06:53

Часовой пояс: GMT + 3



Вы не можете начинать темы
Вы не можете отвечать на сообщения
Вы не можете редактировать свои сообщения
Вы не можете удалять свои сообщения
Вы не можете голосовать в опросах
Вы не можете прикреплять файлы к сообщениям
Вы не можете скачивать файлы