Loading...
Error
 

Скачать торрент (Hard Rock, Classic Rock) The Night Flight Orchestra - Sometimes The World Ain't Enough (Japanese Edition) - 2018 [FLAC, image +.cue, lossless]

 
Автор Сообщение

trygg

post 11-Авг-18 13:39


The Night Flight Orchestra - Sometimes The World Ain't Enough


pic
Год издания: 2018
Страна: Sweden pic
Жанр: Hard Rock
Продолжительность: 01:06:07
Лейбл издания: Nuclear Blast
Страна-выпуска диска: Japan pic
Номер по каталогу: GQCS - 90609
Формат: FLAC
Битрейт аудио: Lossless
Тип рипа: image +.cue
Наличие сканов в содержимом раздачи: да

pic
Трэклист
pic
01. This Time (4:52)
02. Turn To Miami (4:54)
03. Paralyzed (5:16)
04. Sometimes The World Ain't Enough (4:34)
05. Moments Of Thunder (4:27)
06. Speedwagon (3:22)
07. Lovers In The Rain (4:09)
08. Can't Be That Bad (3:40)
09. Pretty Thing Closing In (4:30)
10. Barcelona (5:30)
11. Winged And Serpentine (3:42)
12. The Last Of The Independent Romantics (9:16)
13. Marjorie (bonus track) (3:16)
14. Pacific Priestess (bonus track for Japan) (4:36)

pic
Лог создания рипа

Код:

Exact Audio Copy V1.0 beta 3 from 29. August 2011

EAC extraction logfile from 8. July 2018, 22:20

The Night Flight Orchestra / Sometimes The World Ain't Enough

Used drive  : SlimtypeDVD A  DS8A5SH   Adapter: 0  ID: 0

Read mode               : Secure
Utilize accurate stream : Yes
Defeat audio cache      : Yes
Make use of C2 pointers : No

Read offset correction                      : 6
Overread into Lead-In and Lead-Out          : No
Fill up missing offset samples with silence : Yes
Delete leading and trailing silent blocks   : No
Null samples used in CRC calculations       : Yes
Used interface                              : Installed external ASPI interface

Used output format              : User Defined Encoder
Selected bitrate                : 320 kBit/s
Quality                         : High
Add ID3 tag                     : No
Command line compressor         : C:\Program Files (x86)\Exact Audio Copy\Flac\flac.exe
Additional command line options : -V -8 -T "Date=%year%" -T "Genre=%genre%" %source%

TOC of the extracted CD

     Track |   Start  |  Length  | Start sector | End sector
    ---------------------------------------------------------
        1  |  0:00.00 |  4:52.37 |         0    |    21936
        2  |  4:52.37 |  4:54.16 |     21937    |    44002
        3  |  9:46.53 |  5:15.42 |     44003    |    67669
        4  | 15:02.20 |  4:33.63 |     67670    |    88207
        5  | 19:36.08 |  4:26.73 |     88208    |   108230
        6  | 24:03.06 |  3:22.28 |    108231    |   123408
        7  | 27:25.34 |  4:09.31 |    123409    |   142114
        8  | 31:34.65 |  3:40.17 |    142115    |   158631
        9  | 35:15.07 |  4:30.05 |    158632    |   178886
       10  | 39:45.12 |  5:30.21 |    178887    |   203657
       11  | 45:15.33 |  3:41.62 |    203658    |   220294
       12  | 48:57.20 |  9:16.36 |    220295    |   262030
       13  | 58:13.56 |  3:16.33 |    262031    |   276763
       14  | 61:30.14 |  4:36.28 |    276764    |   297491

Range status and errors

Selected range

     Filename D:\My Music\The Night Flight Orchestra - 2018 Sometimes The World Ain't Enough\The Night Flight Orchestra - Sometimes The World Ain't Enough.wav

     Peak level 97.6 %
     Extraction speed 1.9 X
     Range quality 100.0 %
     Test CRC 909ED62C
     Copy CRC 909ED62C
     Copy OK

No errors occurred

AccurateRip summary

Track  1  not present in database
Track  2  not present in database
Track  3  not present in database
Track  4  not present in database
Track  5  not present in database
Track  6  not present in database
Track  7  not present in database
Track  8  not present in database
Track  9  not present in database
Track 10  not present in database
Track 11  not present in database
Track 12  not present in database
Track 13  not present in database
Track 14  not present in database

None of the tracks are present in the AccurateRip database

End of status report
Индексная карта (non-compilant .cue)

Код:

REM GENRE "Melodic Rock"
REM DATE 2018
REM DISCID EC0F7E0E
REM COMMENT "ExactAudioCopy v1.0b3"
PERFORMER "The Night Flight Orchestra"
TITLE "Sometimes The World Ain't Enough"
FILE "The Night Flight Orchestra - Sometimes The World Ain't Enough.flac" WAVE
  TRACK 01 AUDIO
    TITLE "This Time"
    PERFORMER "The Night Flight Orchestra"
    INDEX 01 00:00:00
  TRACK 02 AUDIO
    TITLE "Turn To Miami"
    PERFORMER "The Night Flight Orchestra"
    INDEX 01 04:52:37
  TRACK 03 AUDIO
    TITLE "Paralyzed"
    PERFORMER "The Night Flight Orchestra"
    INDEX 01 09:46:53
  TRACK 04 AUDIO
    TITLE "Sometimes The World Ain't Enough"
    PERFORMER "The Night Flight Orchestra"
    INDEX 01 15:02:20
  TRACK 05 AUDIO
    TITLE "Moments Of Thunder"
    PERFORMER "The Night Flight Orchestra"
    INDEX 01 19:36:08
  TRACK 06 AUDIO
    TITLE "Speedwagon"
    PERFORMER "The Night Flight Orchestra"
    INDEX 01 24:03:06
  TRACK 07 AUDIO
    TITLE "Lovers In The Rain"
    PERFORMER "The Night Flight Orchestra"
    INDEX 01 27:25:34
  TRACK 08 AUDIO
    TITLE "Can't Be That Bad"
    PERFORMER "The Night Flight Orchestra"
    INDEX 01 31:34:65
  TRACK 09 AUDIO
    TITLE "Pretty Thing Closing In"
    PERFORMER "The Night Flight Orchestra"
    INDEX 01 35:15:07
  TRACK 10 AUDIO
    TITLE "Barcelona"
    PERFORMER "The Night Flight Orchestra"
    INDEX 01 39:45:12
  TRACK 11 AUDIO
    TITLE "Winged And Serpentine"
    PERFORMER "The Night Flight Orchestra"
    INDEX 01 45:15:33
  TRACK 12 AUDIO
    TITLE "The Last Of The Independent Romantics"
    PERFORMER "The Night Flight Orchestra"
    INDEX 01 48:57:20
  TRACK 13 AUDIO
    TITLE "Marjorie (bonus track)"
    PERFORMER "The Night Flight Orchestra"
    INDEX 01 58:13:56
  TRACK 14 AUDIO
    TITLE "Pacific Priestess (bonus track for Japan)"
    PERFORMER "The Night Flight Orchestra"
    INDEX 01 61:30:14

pic
для ознакомления:


pic
pic
The Night Flight Orchestra - 2018 - Sometimes The World Ain't Enough.torrent
Трекер: Зарегистрирован

magnet ссылка

 


Скачать .torrent

13 KB

Статус: проверено (by Snowden в 11-Авг-18 14:04)
Зарегистрирован: 11-Авг-18 13:39
Скачан: 15 раз
Размер: 553 MB | 
Поблагодарили:
Скачать (Hard Rock, Classic Rock) The Night Flight Orchestra - Sometimes The World Ain't Enough (Japanese Edition) - 2018 [FLAC, image +.cue, lossless] торрент
 


Похожие раздачи

Текущее время: 17-Авг 08:36

Часовой пояс: GMT + 3



Вы не можете начинать темы
Вы не можете отвечать на сообщения
Вы не можете редактировать свои сообщения
Вы не можете удалять свои сообщения
Вы не можете голосовать в опросах
Вы не можете прикреплять файлы к сообщениям
Вы не можете скачивать файлы