Loading...
Error
 

Скачать торрент Призраки Бездны: Титаник 3D / IMAX - Ghosts of the Abyss 3D ( Джеймс Кэмерон)[2003,Документальный,BDRip 1080p][3D] Вертикальная анаморфная стереопара

 
Автор Сообщение

brother225

post 11-Авг-18 18:52

pic
Призраки Бездны: Титаник 3D / IMAX - Ghosts of the Abyss 3D

Год выпуска: 2003
Страна: США
Жанр: Документальный
Продолжительность: 01:00:44
Перевод: Профессиональный многоголосый
В ролях: Билл Пэкстон, Лори Джонстон, Дон Линч, Кен Маршалл, Чарлз Пеллегрино
Режиссёр: Джеймс Кэмерон
Описание: Джеймс Кэмерон расcказывает историю легендарного «Титаника». Подготовка к уникальным подводным съемкам велась долгих три года, за которые были собраны новейшие технологические ресурсы и составлена команда высококлассных профессионалов, в которую помимо съемочной группы вошли известные историки и океанологи.
Качество: BDRip 1080p
Формат: MKV
Формат 3D: вертикальная анаморфная стереопара
Порядок ракурсов: левый ракурс первый
Видео кодек: AVC
Аудио кодек: AC3
Видео: AVC, 1920х1080, 23.976 fps, 16000 Kb/s ,0.322 bpp
Аудио: AC3, 6 ch, 48 KHz, 640 Kb/s
MediaInfo
Complete name : H:\мои раздачи\Ghosts of the Abyss 3D 3D-TAB 1080p.mkv
Format : Matroska
Format version : Version 4 / Version 2
File size : 7.06 GiB
Duration : 1 h 0 min
Overall bit rate : 16.6 Mb/s
Encoded date : UTC 2018-08-11 14:57:33
Writing application : mkvmerge v25.0.0 ('Prog Noir') 64-bit
Writing library : libebml v1.3.6 + libmatroska v1.4.9

Video
ID : 1
Format : AVC
Format/Info : Advanced Video Codec
Format profile : [email protected]
MultiView_Count : 2
MultiView_Layout : Top-Bottom (left eye first)
Format settings : CABAC / 4 Ref Frames
Format settings, CABAC : Yes
Format settings, ReFrames : 4 frames
Codec ID : V_MPEG4/ISO/AVC
Duration : 1 h 0 min
Bit rate : 16.0 Mb/s
Width : 1 920 pixels
Height : 1 080 pixels
Display aspect ratio : 16:9
Frame rate mode : Constant
Frame rate : 23.976 (24000/1001) FPS
Color space : YUV
Chroma subsampling : 4:2:0
Bit depth : 8 bits
Scan type : Progressive
Bits/(Pixel*Frame) : 0.322
Stream size : 6.79 GiB (96%)
Title : 3D Half-T&B (x264 [email protected] 2-pass)
Writing library : x264 core 155 r2901 7d0ff22
Encoding settings : cabac=1 / ref=4 / deblock=1:-2:-1 / analyse=0x3:0x133 / me=umh / subme=10 / psy=1 / psy_rd=1.00:0.15 / mixed_ref=1 / me_range=24 / chroma_me=1 / trellis=2 / 8x8dct=1 / cqm=0 / deadzone=21,11 / fast_pskip=1 / chroma_qp_offset=-3 / threads=24 / lookahead_threads=4 / sliced_threads=0 / nr=0 / decimate=1 / interlaced=0 / bluray_compat=0 / constrained_intra=0 / bframes=7 / b_pyramid=2 / b_adapt=2 / b_bias=0 / direct=3 / weightb=1 / open_gop=0 / weightp=2 / keyint=250 / keyint_min=23 / scenecut=40 / intra_refresh=0 / rc_lookahead=60 / rc=2pass / mbtree=1 / bitrate=16000 / ratetol=1.0 / qcomp=0.60 / qpmin=0 / qpmax=69 / qpstep=4 / cplxblur=20.0 / qblur=0.5 / vbv_maxrate=62500 / vbv_bufsize=78125 / nal_hrd=none / filler=0 / frame-packing=4 / ip_ratio=1.40 / aq=1:1.00
Default : Yes
Forced : No
Color range : Limited
Matrix coefficients : BT.709

Audio
ID : 2
Format : AC-3
Format/Info : Audio Coding 3
Commercial name : Dolby Digital
Codec ID : A_AC3
Duration : 1 h 0 min
Bit rate mode : Constant
Bit rate : 640 kb/s
Channel(s) : 6 channels
Channel positions : Front: L C R, Side: L R, LFE
Sampling rate : 48.0 kHz
Frame rate : 31.250 FPS (1536 SPF)
Bit depth : 16 bits
Compression mode : Lossy
Stream size : 278 MiB (4%)
Service kind : Complete Main
Default : Yes
Forced : No

Menu
00:00:00.000 : :1 - 0:00:00
00:05:00.000 : :2 - 0:05:00
00:10:00.000 : :3 - 0:10:00
00:15:00.000 : :4 - 0:15:00
00:20:00.000 : :5 - 0:20:00
00:25:00.000 : :6 - 0:25:00
00:30:00.000 : :7 - 0:30:00
00:35:00.000 : :8 - 0:35:00
00:40:00.000 : :9 - 0:40:00
00:45:00.000 : :10 - 0:45:00
00:50:00.000 : :11 - 0:50:00
00:55:00.000 : :12 - 0:55:00
01:00:00.000 : :13 - 1:00:00
x264log
x264 [info]: frame I:487 Avg QP:15.52 size:323034
x264 [info]: frame P:17799 Avg QP:18.13 size:149918
x264 [info]: frame B:69086 Avg QP:19.98 size: 64585
x264 [info]: consecutive B-frames: 1.1% 1.5% 5.0% 19.2% 17.1% 49.9% 4.8% 1.5%
Скриншоты
Ghosts of the Abyss 3D 3D-TAB 1080p.mkv.torrent
 СЕРЕБРЯНАЯ РАЗДАЧА! СКАЧАННОЕ ЗАСЧИТЫВАЕТСЯ ТОЛЬКО НАПОЛОВИНУ! 
Вечный
Трекер: Зарегистрирован

magnet ссылка

 


Скачать .torrent

35 KB

Статус: проверено (by Арт33 в 11-Авг-18 19:33)
Зарегистрирован: 11-Авг-18 18:53
Скачан: 10 раз
Размер: 7.06 GB | 
Поблагодарили:
Скачать Призраки Бездны: Титаник 3D / IMAX - Ghosts of the Abyss 3D ( Джеймс Кэмерон)[2003,Документальный,BDRip 1080p][3D] Вертикальная анаморфная стереопара торрент
 


Похожие раздачи

skvazn01

post 11-Авг-18 23:55 (спустя 5 часов)

Сначала подумал про фильм "Корабль призрак" 2002г

Текущее время: 18-Авг 20:45

Часовой пояс: GMT + 3



Вы не можете начинать темы
Вы не можете отвечать на сообщения
Вы не можете редактировать свои сообщения
Вы не можете удалять свои сообщения
Вы не можете голосовать в опросах
Вы не можете прикреплять файлы к сообщениям
Вы не можете скачивать файлы