Loading...
Error
 

Скачать торрент (Hard Rock, Classic Rock) Rainbow - Memories In Rock II (Live In England/ 3CDs/ 2017) - 2018[FLAC, image +.cue, lossless]

 
Автор Сообщение

trygg

post 12-Авг-18 12:00


Rainbow - Memories In Rock II (Live In England)


pic
Год издания: 2018
Страна: USA | UK picpic
Жанр: Hard Rock, Classic Rock
Продолжительность: 02:29:29
Лейбл издания: Ward Records
Страна-выпуска диска: Japan pic
Номер по каталогу: GQCS 90552-6
Формат: FLAC
Битрейт аудио: Lossless
Тип рипа: image +.cue
Наличие сканов в содержимом раздачи: да

pic
Трэклист
CD 1 |
pic
01. Over The Rainbow (Live) (0:34)
02. Spotlight Kid (Live) (5:03)
03. I Surrender (Live) (4:52)
04. Mistreated (Live) (10:43)
05. Since You've Been Gone (Live) (2:56)
06. Man On The Silver Mountain - Woman From Tokyo (Live) (6:45)
07. 16th Century Greensleeves (Live) (6:53)
08. Soldier Of Fortune (Live) (3:50)
09. Perfect Strangers (Live) (5:05)
10. Difficult To Cure (Live) (15:48)
11. All Night Long (Live) (4:46)
12. Child In Time (Live) (10:21)
CD 2 |
pic
01. Stargazer (Live) (8:52)
02. Long Live Rock'n'Roll - Lazy (Live) (10:03)
03. Catch The Rainbow (Live) (8:45)
04. Black Night (Live) (10:03)
05. Carry On Jon (Live) (6:22)
06. Burn (Live) (6:43)
07. Temple Of The King (Live) (3:53)
08. Smoke On The Water (Live) (5:20)
CD 3 |
pic
01. Land Of Hope And Glory (2:44)
02. I Surrender (4:10)
03. Waiting For A Sign (4:59)

pic
Лог создания рипа
CD 1

Код:

Exact Audio Copy V1.3 from 2. September 2016

EAC extraction logfile from 28. April 2018, 21:43

Ritchie Blackmore's Rainbow / Memories In Rock II (Disc 1)

Used drive  : ASUS    DRW-24B3LT   Adapter: 1  ID: 0

Read mode               : Secure
Utilize accurate stream : Yes
Defeat audio cache      : Yes
Make use of C2 pointers : No

Read offset correction                      : 6
Overread into Lead-In and Lead-Out          : No
Fill up missing offset samples with silence : Yes
Delete leading and trailing silent blocks   : No
Null samples used in CRC calculations       : Yes
Used interface                              : Native Win32 interface for Win NT & 2000

Used output format : Internal WAV Routines
Sample format      : 44.100 Hz; 16 Bit; Stereo

TOC of the extracted CD

     Track |   Start  |  Length  | Start sector | End sector
    ---------------------------------------------------------
        1  |  0:00.00 |  0:34.24 |         0    |     2573
        2  |  0:34.24 |  5:02.72 |      2574    |    25295
        3  |  5:37.21 |  4:52.03 |     25296    |    47198
        4  | 10:29.24 | 10:43.32 |     47199    |    95455
        5  | 21:12.56 |  2:55.69 |     95456    |   108649
        6  | 24:08.50 |  6:45.09 |    108650    |   139033
        7  | 30:53.59 |  6:52.47 |    139034    |   169980
        8  | 37:46.31 |  3:50.14 |    169981    |   187244
        9  | 41:36.45 |  5:04.64 |    187245    |   210108
       10  | 46:41.34 | 15:47.41 |    210109    |   281174
       11  | 62:29.00 |  4:45.40 |    281175    |   302589
       12  | 67:14.40 | 10:20.54 |    302590    |   349143

Range status and errors

Selected range

     Filename D:\Osieron\My Documents\Desktop\Test&Copy\Ritchie Blackmore's Rainbow - Memories In Rock II (Disc 1).wav

     Peak level 100.0 %
     Extraction speed 6.9 X
     Range quality 100.0 %
     Test CRC 28F2021F
     Copy CRC 28F2021F
     Copy OK

No errors occurred

AccurateRip summary

Track  1  cannot be verified as accurate (confidence 1)  [45E86D8F], AccurateRip returned [3BB5D2A6]  (AR v2)
Track  2  cannot be verified as accurate (confidence 1)  [21D0C6F8], AccurateRip returned [115FE67E]  (AR v2)
Track  3  cannot be verified as accurate (confidence 1)  [822A9668], AccurateRip returned [E3494CFC]  (AR v2)
Track  4  cannot be verified as accurate (confidence 1)  [5438D47C], AccurateRip returned [C868583C]  (AR v2)
Track  5  cannot be verified as accurate (confidence 1)  [0A477FAE], AccurateRip returned [54B65F7A]  (AR v2)
Track  6  cannot be verified as accurate (confidence 1)  [3885FF88], AccurateRip returned [132BFDB6]  (AR v2)
Track  7  cannot be verified as accurate (confidence 1)  [99782E3F], AccurateRip returned [C47EB64F]  (AR v2)
Track  8  cannot be verified as accurate (confidence 1)  [BEE46607], AccurateRip returned [7274DDF3]  (AR v2)
Track  9  cannot be verified as accurate (confidence 1)  [A96A6A22], AccurateRip returned [90491553]  (AR v2)
Track 10  cannot be verified as accurate (confidence 1)  [C3EE12E1], AccurateRip returned [670D2A89]  (AR v2)
Track 11  cannot be verified as accurate (confidence 1)  [3D16B8DD], AccurateRip returned [C191DBC6]  (AR v2)
Track 12  cannot be verified as accurate (confidence 1)  [C44DB23B], AccurateRip returned [8582CB83]  (AR v2)

No tracks could be verified as accurate
You may have a different pressing from the one(s) in the database

End of status report
CD 2

Код:

Exact Audio Copy V1.3 from 2. September 2016

EAC extraction logfile from 28. April 2018, 22:04

Ritchie Blackmore's Rainbow / Memories In Rock II (Disc 2)

Used drive  : ASUS    DRW-24B3LT   Adapter: 1  ID: 0

Read mode               : Secure
Utilize accurate stream : Yes
Defeat audio cache      : Yes
Make use of C2 pointers : No

Read offset correction                      : 6
Overread into Lead-In and Lead-Out          : No
Fill up missing offset samples with silence : Yes
Delete leading and trailing silent blocks   : No
Null samples used in CRC calculations       : Yes
Used interface                              : Native Win32 interface for Win NT & 2000

Used output format : Internal WAV Routines
Sample format      : 44.100 Hz; 16 Bit; Stereo

TOC of the extracted CD

     Track |   Start  |  Length  | Start sector | End sector
    ---------------------------------------------------------
        1  |  0:00.00 |  8:51.74 |         0    |    39898
        2  |  8:51.74 | 10:02.48 |     39899    |    85096
        3  | 18:54.47 |  8:44.68 |     85097    |   124464
        4  | 27:39.40 | 10:02.69 |    124465    |   169683
        5  | 37:42.34 |  6:22.16 |    169684    |   198349
        6  | 44:04.50 |  6:42.72 |    198350    |   228571
        7  | 50:47.47 |  3:52.64 |    228572    |   246035
        8  | 54:40.36 |  5:19.40 |    246036    |   270000

Range status and errors

Selected range

     Filename D:\Osieron\My Documents\Desktop\Test&Copy\Ritchie Blackmore's Rainbow - Memories In Rock II (Disc 2).wav

     Peak level 98.8 %
     Extraction speed 6.0 X
     Range quality 100.0 %
     Test CRC 9AE121D0
     Copy CRC 9AE121D0
     Copy OK

No errors occurred

AccurateRip summary

Track  1  not present in database
Track  2  not present in database
Track  3  not present in database
Track  4  not present in database
Track  5  not present in database
Track  6  not present in database
Track  7  not present in database
Track  8  not present in database

None of the tracks are present in the AccurateRip database

End of status report
CD 3

Код:

Exact Audio Copy V1.3 from 2. September 2016

EAC extraction logfile from 28. April 2018, 22:13

Ritchie Blackmore's Rainbow / Memories In Rock II (Bonus Disc)

Used drive  : ASUS    DRW-24B3LT   Adapter: 1  ID: 0

Read mode               : Secure
Utilize accurate stream : Yes
Defeat audio cache      : Yes
Make use of C2 pointers : No

Read offset correction                      : 6
Overread into Lead-In and Lead-Out          : No
Fill up missing offset samples with silence : Yes
Delete leading and trailing silent blocks   : No
Null samples used in CRC calculations       : Yes
Used interface                              : Native Win32 interface for Win NT & 2000

Used output format : Internal WAV Routines
Sample format      : 44.100 Hz; 16 Bit; Stereo

TOC of the extracted CD

     Track |   Start  |  Length  | Start sector | End sector
    ---------------------------------------------------------
        1  |  0:00.00 |  2:44.17 |         0    |    12316
        2  |  2:44.17 |  4:10.17 |     12317    |    31083
        3  |  6:54.34 |  4:59.18 |     31084    |    53526

Range status and errors

Selected range

     Filename D:\Osieron\My Documents\Desktop\Test&Copy\Ritchie Blackmore's Rainbow - Memories In Rock II (Bonus Disc).wav

     Peak level 98.8 %
     Extraction speed 4.2 X
     Range quality 100.0 %
     Test CRC 6CC20CA2
     Copy CRC 6CC20CA2
     Copy OK

No errors occurred

AccurateRip summary

Track  1  not present in database
Track  2  not present in database
Track  3  not present in database

None of the tracks are present in the AccurateRip database

End of status report
Индексная карта (non-compilant .cue)
CD 1

Код:

REM GENRE "Rock"
REM DATE 2018
REM DISCID A2122F0C
REM COMMENT "ExactAudioCopy v1.3"
PERFORMER "Ritchie Blackmore's Rainbow"
TITLE "Memories In Rock II (Disc 1)"
REM COMPOSER ""
FILE "Ritchie Blackmore's Rainbow - Memories In Rock II (Disc 1).flac" WAVE
  TRACK 01 AUDIO
    TITLE "Over The Rainbow (Live)"
    PERFORMER "Ritchie Blackmore's Rainbow"
    REM COMPOSER ""
    INDEX 01 00:00:00
  TRACK 02 AUDIO
    TITLE "Spotlight Kid (Live)"
    PERFORMER "Ritchie Blackmore's Rainbow"
    REM COMPOSER ""
    INDEX 01 00:34:24
  TRACK 03 AUDIO
    TITLE "I Surrender (Live)"
    PERFORMER "Ritchie Blackmore's Rainbow"
    REM COMPOSER ""
    INDEX 01 05:37:21
  TRACK 04 AUDIO
    TITLE "Mistreated (Live)"
    PERFORMER "Ritchie Blackmore's Rainbow"
    REM COMPOSER ""
    INDEX 01 10:29:24
  TRACK 05 AUDIO
    TITLE "Since You've Been Gone (Live)"
    PERFORMER "Ritchie Blackmore's Rainbow"
    REM COMPOSER ""
    INDEX 01 21:12:56
  TRACK 06 AUDIO
    TITLE "Man On The Silver Mountain - Woman From Tokyo (Live)"
    PERFORMER "Ritchie Blackmore's Rainbow"
    REM COMPOSER ""
    INDEX 01 24:08:50
  TRACK 07 AUDIO
    TITLE "16th Century Greensleeves (Live)"
    PERFORMER "Ritchie Blackmore's Rainbow"
    REM COMPOSER ""
    INDEX 01 30:53:59
  TRACK 08 AUDIO
    TITLE "Soldier Of Fortune (Live)"
    PERFORMER "Ritchie Blackmore's Rainbow"
    REM COMPOSER ""
    INDEX 01 37:46:31
  TRACK 09 AUDIO
    TITLE "Perfect Strangers (Live)"
    PERFORMER "Ritchie Blackmore's Rainbow"
    REM COMPOSER ""
    INDEX 01 41:36:45
  TRACK 10 AUDIO
    TITLE "Difficult To Cure (Live)"
    PERFORMER "Ritchie Blackmore's Rainbow"
    REM COMPOSER ""
    INDEX 01 46:41:34
  TRACK 11 AUDIO
    TITLE "All Night Long (Live)"
    PERFORMER "Ritchie Blackmore's Rainbow"
    REM COMPOSER ""
    INDEX 01 62:29:00
  TRACK 12 AUDIO
    TITLE "Child In Time (Live)"
    PERFORMER "Ritchie Blackmore's Rainbow"
    REM COMPOSER ""
    INDEX 01 67:14:40
CD 2

Код:

REM GENRE "Rock"
REM DATE 2018
REM DISCID 650E1008
REM COMMENT "ExactAudioCopy v1.3"
PERFORMER "Ritchie Blackmore's Rainbow"
TITLE "Memories In Rock II (Disc 2)"
REM COMPOSER ""
FILE "Ritchie Blackmore's Rainbow - Memories In Rock II (Disc 2).flac" WAVE
  TRACK 01 AUDIO
    TITLE "Stargazer (Live)"
    PERFORMER "Ritchie Blackmore's Rainbow"
    REM COMPOSER ""
    INDEX 01 00:00:00
  TRACK 02 AUDIO
    TITLE "Long Live Rock'n'Roll - Lazy (Live)"
    PERFORMER "Ritchie Blackmore's Rainbow"
    REM COMPOSER ""
    INDEX 01 08:51:74
  TRACK 03 AUDIO
    TITLE "Catch The Rainbow (Live)"
    PERFORMER "Ritchie Blackmore's Rainbow"
    REM COMPOSER ""
    INDEX 01 18:54:47
  TRACK 04 AUDIO
    TITLE "Black Night (Live)"
    PERFORMER "Ritchie Blackmore's Rainbow"
    REM COMPOSER ""
    INDEX 01 27:39:40
  TRACK 05 AUDIO
    TITLE "Carry On Jon (Live)"
    PERFORMER "Ritchie Blackmore's Rainbow"
    REM COMPOSER ""
    INDEX 01 37:42:34
  TRACK 06 AUDIO
    TITLE "Burn (Live)"
    PERFORMER "Ritchie Blackmore's Rainbow"
    REM COMPOSER ""
    INDEX 01 44:04:50
  TRACK 07 AUDIO
    TITLE "Temple Of The King (Live)"
    PERFORMER "Ritchie Blackmore's Rainbow"
    REM COMPOSER ""
    INDEX 01 50:47:47
  TRACK 08 AUDIO
    TITLE "Smoke On The Water (Live)"
    PERFORMER "Ritchie Blackmore's Rainbow"
    REM COMPOSER ""
    INDEX 01 54:40:36

CD 3

Код:

REM GENRE "Rock"
REM DATE 2018
REM DISCID 1A02C903
REM COMMENT "ExactAudioCopy v1.3"
PERFORMER "Ritchie Blackmore's Rainbow"
TITLE "Memories In Rock II (Bonus Disc)"
REM COMPOSER ""
FILE "Ritchie Blackmore's Rainbow - Memories In Rock II (Bonus Disc).flac" WAVE
  TRACK 01 AUDIO
    TITLE "Land Of Hope And Glory"
    PERFORMER "Ritchie Blackmore's Rainbow"
    REM COMPOSER ""
    INDEX 01 00:00:00
  TRACK 02 AUDIO
    TITLE "I Surrender"
    PERFORMER "Ritchie Blackmore's Rainbow"
    REM COMPOSER ""
    INDEX 00 02:43:32
    INDEX 01 02:44:17
  TRACK 03 AUDIO
    TITLE "Waiting For A Sign"
    PERFORMER "Ritchie Blackmore's Rainbow"
    REM COMPOSER ""
    INDEX 00 06:52:41
    INDEX 01 06:54:34
Состав группы:
Ritchie Blackmore - Guitar
Ronnie Romero - Vocals
David Keith - Drums
Bob Nouveau - Bass
Jens Johansson - Keyboards
Candice Night - Backing Vocals
Lady Lynn - Backing Vocals


pic
pic
Rainbow - Memories In Rock II Live In England 2017 (2018) 3CDs.torrent
Трекер: Зарегистрирован

magnet ссылка

 


Скачать .torrent

14 KB

Статус: проверено (by Snowden в 12-Авг-18 13:44)
Зарегистрирован: 12-Авг-18 12:00
Скачан: 14 раз
Размер: 1.05 GB | 
Поблагодарили:
Скачать (Hard Rock, Classic Rock) Rainbow - Memories In Rock II (Live In England/ 3CDs/ 2017) - 2018[FLAC, image +.cue, lossless] торрент
 


Похожие раздачи

Текущее время: 16-Авг 06:52

Часовой пояс: GMT + 3



Вы не можете начинать темы
Вы не можете отвечать на сообщения
Вы не можете редактировать свои сообщения
Вы не можете удалять свои сообщения
Вы не можете голосовать в опросах
Вы не можете прикреплять файлы к сообщениям
Вы не можете скачивать файлы