Loading...
Error
 

Скачать торрент (Trash Metal) Metallica - Live in Lisbon (2CD, Portugal, Altice Arena) - 2018 [FLAC, image +.cue, lossless]

 
Автор Сообщение

trygg

post 15-Сен-18 18:08


Metallica - Live in Lisbon (2CD, Portugal, Altice Arena)


pic
Год издания: 2018
Страна: Los Angeles, California, U.S. pic
Жанр: Trash Metal
Продолжительность: 02:23:49
Лейбл издания: Blackened Recordings Inc.
Страна-выпуска диска: EU pic
Номер по каталогу: 4607147922934
Формат: FLAC
Битрейт аудио: Lossless
Тип рипа: image +.cue
Наличие сканов в содержимом раздачи: да

pic
Трэклист
pic
CD 1 | 01:10:19
pic
01. Hardwired (3:48)
02. Atlas, Rise! (6:33)
03. Seek and Destroy (7:05)
04. Harvester Of Sorrow (6:09)
05. Welcome Home (Sanitarium) (8:08)
06. Now That We're Dead (10:52)
07. Dream No More (7:07)
08. For Whom The Bell Tolls (5:10)
09. Halo On Fire (9:41)
10. Kirk And Rob Doodle (5:45)
CD 2 | 01:13:30
pic
01. Am I Evil? (4:35)
02. Creeping Death (7:51)
03. Moth Into Flame (9:23)
04. Sad But True (6:10)
05. One (8:43)
06. Master Of Puppets (11:46)
07. Spit Out The Bone (7:07)
08. Nothing Else Matters (7:01)
09. Enter Sandman (10:54)

pic
Лог создания рипа
CD 1

Код:

Exact Audio Copy V1.1 from 23. June 2015

Отчёт EAC об извлечении, выполненном 4. сентября 2018, 1:27

- / Metallica - Live In Lisbon 2018 - CD1

Дисковод: PIONEER DVD-RW DVRTD10RS   Adapter: 1  ID: 0

Режим чтения                 : Достоверность
Использование точного потока : Да
Отключение кэша аудио        : Да
Использование указателей C2  : Нет

Коррекция смещения при чтении                     : 6
Способность читать области Lead-in и Lead-out     : Нет
Заполнение пропущенных сэмплов тишиной            : Да
Удаление блоков с тишиной в начале и конце        : Нет
При вычислениях CRC использовались нулевые сэмплы : Да
Интерфейс                                         : Встроенный Win32-интерфейс для Win NT/2000

Выходной формат          : Пользовательский кодировщик
Выбранный битрейт        : 768 kBit/s
Качество                 : Высокий
Добавление ID3-тега      : Нет
Утилита сжатия           : C:\Program Files (x86)\Exact Audio Copy\FLAC\FLAC.EXE
Дополнительные параметры : -V -8 -T "Date=%year%" -T "Genre=%genre%" %source%

TOC извлечённого CD

     Трек |   Старт  | Длительность | Начальный сектор | Конечный сектор
    ---------------------------------------------------------------------
       1  |  0:00.00 |    3:48.09   |           0      |      17108
       2  |  3:48.09 |    6:33.34   |       17109      |      46617
       3  | 10:21.43 |    7:04.39   |       46618      |      78456
       4  | 17:26.07 |    6:08.50   |       78457      |     106106
       5  | 23:34.57 |    8:08.17   |      106107      |     142723
       6  | 31:42.74 |   10:52.36   |      142724      |     191659
       7  | 42:35.35 |    7:07.08   |      191660      |     223692
       8  | 49:42.43 |    5:09.60   |      223693      |     246927
       9  | 54:52.28 |    9:41.10   |      246928      |     290512
      10  | 64:33.38 |    5:45.25   |      290513      |     316412

Характеристики диапазона извлечения и сообщения об ошибках

Выбранный диапазон

     Имя файла C:\Users\Александр\Music\Metallica - Live In Lisbon 2018 - CD1.wav

     Подозрительная позиция 0:02:48
     Подозрительная позиция 0:03:16
     Подозрительная позиция 0:05:34
     Подозрительная позиция 0:44:35
     Подозрительная позиция 0:50:07
     Подозрительная позиция 0:53:03
     Подозрительная позиция 0:55:45
     Подозрительная позиция 0:56:54
     Подозрительная позиция 0:57:31
     Подозрительная позиция 1:03:06
     Подозрительная позиция 1:03:32
     Подозрительная позиция 1:06:57
     Подозрительная позиция 1:08:40
     Подозрительная позиция 1:09:02
     Подозрительная позиция 1:09:06
     Подозрительная позиция 1:09:14 - 1:09:15
     Подозрительная позиция 1:09:20
     Подозрительная позиция 1:09:28 - 1:09:29
     Подозрительная позиция 1:10:07

     Пиковый уровень 95.8 %
     Скорость извлечения 0.3 X
     Качество диапазона 99.0 %
     CRC копии 1AFB3975
     Копирование завершено

Были ошибки

AccurateRip: сводка

Трек  1  точность не определена (достоверность 1)  [722B5E67], AccurateRip вернул [FC4E624E]  (AR v2)
Трек  2  точность не определена (достоверность 1)  [6E858990], AccurateRip вернул [424FB713]  (AR v2)
Трек  3  : извлечено точно (доверие 1)  [9DFA7C1E]  (AR v2)
Трек  4  : извлечено точно (доверие 1)  [BDBAE06A]  (AR v2)
Трек  5  : извлечено точно (доверие 1)  [1D909EBB]  (AR v2)
Трек  6  точность не определена (достоверность 1)  [3156F759], AccurateRip вернул [86906F94]  (AR v2)
Трек  7  точность не определена (достоверность 1)  [8541671B], AccurateRip вернул [A503CDE7]  (AR v2)
Трек  8  точность не определена (достоверность 1)  [8F710767], AccurateRip вернул [E91BF2B9]  (AR v2)
Трек  9  точность не определена (достоверность 1)  [B5CA1EA7], AccurateRip вернул [BD0F05B4]  (AR v2)
Трек 10  точность не определена (достоверность 1)  [40A18CF3], AccurateRip вернул [08808B9B]  (AR v2)

 3 трек(и) скопированы точно
 7 трек(и) не удалось проверить на точность

Некоторые треки не прошли проверку на точность

Конец отчёта
CD 2

Код:

Exact Audio Copy V1.1 from 23. June 2015

Отчёт EAC об извлечении, выполненном 4. сентября 2018, 22:43

- / Metallica - Live In Lisbon 2018 - CD2

Дисковод: PIONEER DVD-RW DVRTD10RS   Adapter: 1  ID: 0

Режим чтения                 : Достоверность
Использование точного потока : Да
Отключение кэша аудио        : Да
Использование указателей C2  : Нет

Коррекция смещения при чтении                     : 6
Способность читать области Lead-in и Lead-out     : Нет
Заполнение пропущенных сэмплов тишиной            : Да
Удаление блоков с тишиной в начале и конце        : Нет
При вычислениях CRC использовались нулевые сэмплы : Да
Интерфейс                                         : Встроенный Win32-интерфейс для Win NT/2000

Выходной формат          : Пользовательский кодировщик
Выбранный битрейт        : 768 kBit/s
Качество                 : Высокий
Добавление ID3-тега      : Нет
Утилита сжатия           : C:\Program Files (x86)\Exact Audio Copy\FLAC\FLAC.EXE
Дополнительные параметры : -V -8 -T "Date=%year%" -T "Genre=%genre%" %source%

TOC извлечённого CD

     Трек |   Старт  | Длительность | Начальный сектор | Конечный сектор
    ---------------------------------------------------------------------
       1  |  0:00.00 |    4:35.21   |           0      |      20645
       2  |  4:35.21 |    7:50.66   |       20646      |      55961
       3  | 12:26.12 |    9:22.58   |       55962      |      98169
       4  | 21:48.70 |    6:09.61   |       98170      |     125905
       5  | 27:58.56 |    8:43.27   |      125906      |     165157
       6  | 36:42.08 |   11:45.44   |      165158      |     218076
       7  | 48:27.52 |    7:07.23   |      218077      |     250124
       8  | 55:35.00 |    7:01.02   |      250125      |     281701
       9  | 62:36.02 |   10:53.53   |      281702      |     330729

Характеристики диапазона извлечения и сообщения об ошибках

Выбранный диапазон

     Имя файла C:\Users\Александр\Music\Metallica - Live In Lisbon 2018 - CD2.wav

     Подозрительная позиция 0:50:05
     Подозрительная позиция 0:53:21
     Подозрительная позиция 0:56:08
     Подозрительная позиция 0:56:47
     Подозрительная позиция 0:57:25
     Подозрительная позиция 1:05:35
     Подозрительная позиция 1:06:21
     Подозрительная позиция 1:06:23 - 1:06:25
     Подозрительная позиция 1:06:28 - 1:06:29
     Подозрительная позиция 1:06:31
     Подозрительная позиция 1:06:35
     Подозрительная позиция 1:06:37 - 1:06:38
     Подозрительная позиция 1:06:41 - 1:06:43
     Подозрительная позиция 1:06:45
     Подозрительная позиция 1:06:47 - 1:06:50
     Подозрительная позиция 1:06:52 - 1:06:53
     Подозрительная позиция 1:06:55
     Подозрительная позиция 1:06:59 - 1:07:04
     Подозрительная позиция 1:07:06 - 1:07:16
     Подозрительная позиция 1:07:19 - 1:07:23
     Подозрительная позиция 1:07:25 - 1:07:28
     Подозрительная позиция 1:07:33
     Подозрительная позиция 1:07:36
     Подозрительная позиция 1:07:45
     Подозрительная позиция 1:08:48
     Подозрительная позиция 1:08:54 - 1:08:55
     Подозрительная позиция 1:08:59
     Подозрительная позиция 1:09:15
     Подозрительная позиция 1:09:20
     Подозрительная позиция 1:09:23
     Подозрительная позиция 1:09:59
     Подозрительная позиция 1:10:03

     Пиковый уровень 96.2 %
     Скорость извлечения 0.3 X
     Качество диапазона 98.8 %
     CRC теста DA61BAF4
     CRC копии 2BFED845
     Копирование завершено

Были ошибки

AccurateRip: сводка

Трек  1  отсутствует в базе данных
Трек  2  отсутствует в базе данных
Трек  3  отсутствует в базе данных
Трек  4  отсутствует в базе данных
Трек  5  отсутствует в базе данных
Трек  6  отсутствует в базе данных
Трек  7  отсутствует в базе данных
Трек  8  отсутствует в базе данных
Трек  9  отсутствует в базе данных

Ни одного трека нет в базе AccurateRip

Конец отчёта
Индексная карта (non-compilant .cue)
CD 1

Код:

REM GENRE "Thrash Metal"
REM DATE 2018
REM DISCID 8C107A0A
REM COMMENT "ExactAudioCopy v1.1"
PERFORMER ""
TITLE "Metallica - Live In Lisbon 2018 - CD1"
FILE "Metallica - Live In Lisbon 2018 - CD1.flac" WAVE
  TRACK 01 AUDIO
    TITLE "Hardwired"
    PERFORMER ""
    FLAGS DCP
    INDEX 01 00:00:00
  TRACK 02 AUDIO
    TITLE "Atlas, Rise!"
    PERFORMER ""
    FLAGS DCP
    INDEX 01 03:48:09
  TRACK 03 AUDIO
    TITLE "Seek and Destroy"
    PERFORMER ""
    FLAGS DCP
    INDEX 01 10:21:43
  TRACK 04 AUDIO
    TITLE "Harvester Of Sorrow"
    PERFORMER ""
    FLAGS DCP
    INDEX 01 17:26:07
  TRACK 05 AUDIO
    TITLE "Welcome Home (Sanitarium)"
    PERFORMER ""
    FLAGS DCP
    INDEX 01 23:34:57
  TRACK 06 AUDIO
    TITLE "Now That We're Dead"
    PERFORMER ""
    FLAGS DCP
    INDEX 01 31:42:74
  TRACK 07 AUDIO
    TITLE "Dream No More"
    PERFORMER ""
    FLAGS DCP
    INDEX 01 42:35:35
  TRACK 08 AUDIO
    TITLE "For Whom The Bell Tolls"
    PERFORMER ""
    FLAGS DCP
    INDEX 01 49:42:43
  TRACK 09 AUDIO
    TITLE "Halo On Fire"
    PERFORMER ""
    FLAGS DCP
    INDEX 01 54:52:28
  TRACK 10 AUDIO
    TITLE "Kirk And Rob Doodle"
    PERFORMER ""
    FLAGS DCP
    INDEX 01 64:33:38
CD 2

Код:

REM DISCID 7C113909
REM COMMENT "ExactAudioCopy v1.1"
PERFORMER ""
TITLE "Metallica - Live In Lisbon 2018 - CD2"
FILE "Metallica - Live In Lisbon 2018 - CD2.flac" WAVE
  TRACK 01 AUDIO
    TITLE "Am I Evil?"
    PERFORMER "Metallica"
    FLAGS DCP
    INDEX 01 00:00:00
  TRACK 02 AUDIO
    TITLE "Creeping Death"
    PERFORMER "Metallica"
    FLAGS DCP
    INDEX 01 04:35:21
  TRACK 03 AUDIO
    TITLE "Moth Into Flame"
    PERFORMER "Metallica"
    FLAGS DCP
    INDEX 01 12:26:12
  TRACK 04 AUDIO
    TITLE "Sad But True"
    PERFORMER "Metallica"
    FLAGS DCP
    INDEX 01 21:48:70
  TRACK 05 AUDIO
    TITLE "One"
    PERFORMER "Metallica"
    FLAGS DCP
    INDEX 01 27:58:56
  TRACK 06 AUDIO
    TITLE "Master Of Puppets"
    PERFORMER "Metallica"
    FLAGS DCP
    INDEX 01 36:42:08
  TRACK 07 AUDIO
    TITLE "Spit Out The Bone"
    PERFORMER "Metallica"
    FLAGS DCP
    INDEX 01 48:27:52
  TRACK 08 AUDIO
    TITLE "Nothing Else Matters"
    PERFORMER "Metallica"
    FLAGS DCP
    INDEX 01 55:35:00
  TRACK 09 AUDIO
    TITLE "Enter Sandman"
    PERFORMER "Metallica"
    FLAGS DCP
    INDEX 01 62:36:02

pic
для ознакомления:


pic
pic
2018 - Live in Lisbon (2CD, Portugal, Altice Arena).torrent
Трекер: Зарегистрирован

magnet ссылка

 


Скачать .torrent

13 KB

Статус: проверено (by ilyash_rekviem в 15-Сен-18 18:33)
Зарегистрирован: 15-Сен-18 18:08
Скачан: 36 раз
Размер: 1.04 GB | 
Поблагодарили:
Скачать (Trash Metal) Metallica - Live in Lisbon (2CD, Portugal, Altice Arena) - 2018 [FLAC, image +.cue, lossless] торрент
 


Похожие раздачи

sindis

post 15-Сен-18 19:32 (спустя 1 час 24 минуты)

а в мр3 не предвидеться?

trygg

post 15-Сен-18 19:58 (спустя 25 минут)

Завтра залью MP3

ikar666

post 15-Сен-18 21:30 (спустя 1 час 32 минуты)

trygg
Спасибо Уважаемы!
Старички в качестве это отлично!!!

Текущее время: 18-Ноя 06:37

Часовой пояс: GMT + 3



Вы не можете начинать темы
Вы не можете отвечать на сообщения
Вы не можете редактировать свои сообщения
Вы не можете удалять свои сообщения
Вы не можете голосовать в опросах
Вы не можете прикреплять файлы к сообщениям
Вы не можете скачивать файлы