Loading...
Error
 

Скачать торрент Военная приемка. Дивизия Энгельса или воздушная часть ядерной триады (эфир от 16.09.2018) [2018, Документальный, военное дело, SATRip]

 
Автор Сообщение

centoriuse

post 16-Сен-18 09:26

pic
Военная приемка. Дивизия Энгельса или воздушная часть ядерной триады

Год выпуска: 2018
Страна: Россия, ОАО «ТРК ВС РФ «ЗВЕЗДА
Режиссер: Александр Шильников
Ведущий: Алексей Егоров
Жанр:Документальный, военное дело
Продолжительность: 00:38:38
Перевод: Не требуется
Субтитры: Отсутствует

Описание:
Беспилотное такси, беспилотники грузовики — еще недавно все это казалось чем-то из области фантастики. И вот теперь претворяется в жизни на самом высоком государственном уровне: Президент России поручил Объединённой авиастроительной корпорации (ОАК) создать в стране систему транспортной беспилотной авиации. О том, как будет работать новый вид транспорта, как будут решаться вопросы безопасности, какие законы надо будет принять, и почему эту задачу поручили российским оборонщикам — обо всём этом расскажет «Военная приемка». В этот раз зрители программы впервые увидят самый большой в России грузовой беспилотник, тяжеловеса, который способен брать на борт груз весом 5 тонн. Кроме этого, мы покажем абсолютно новые электрические и гибридные дроны, беспилотные самолеты и конверопланы, которые проходят испытание на закрытом полигоне Центрального Аэрогидродинамического института имени Жуковского. Вместе с учеными съемочная группа программы устроит настоящую проверку новейшей беспилотной технике, которая уже через несколько лет вполне сможет летать у нас над головами, доставляя грузы и посылки.


Качество: SATRip
Формат: AVI
Видео кодек: XviD,
Аудио кодек: AC3
Видео: MPEG4, XviD, 720x400 (16:9), 25.000 fps, 1 788 Kbps (0.248 bit/pixel)
Аудио: AC-3, 48.0 KHz, 2 ch, 192 Kbps, CBR
MediaInfo

Код:

Общее
Полное имя                               : F:\видео\фильмы\Военная приемка\Военная приемка (2018.09.16) SATRip.avi
Формат                                   : AVI
Формат/Информация                        : Audio Video Interleave
Размер файла                             : 550 Мбайт
Продолжительность                        : 38 м. 38 с.
Общий поток                              : 1990 Кбит/сек
Программа кодирования                    : VirtualDubMod 1.5.10.3 | || (build 2550/release)
Библиотека кодирования                   : VirtualDubMod build 2550/release

Видео
Идентификатор                            : 0
Формат                                   : MPEG-4 Visual
Профиль формата                          : Advanced [email protected]
Настройки формата                        : BVOP1
Параметр BVOP формата                    : 1
Параметр QPel формата                    : Нет
Параметр GMC формата                     : Без точки перехода
Параметр матрицы формата                 : Default (H.263)
Идентификатор кодека                     : XVID
Идентификатор кодека/Подсказка           : XviD
Продолжительность                        : 38 м. 38 с.
Битрейт                                  : 1788 Кбит/сек
Ширина                                   : 720 пикселей
Высота                                   : 400 пикселей
Соотношение сторон                       : 16:9
Частота кадров                           : 25,000 кадров/сек
Цветовое пространство                    : YUV
Субдискретизация насыщенности            : 4:2:0
Битовая глубина                          : 8 бит
Тип развёртки                            : Прогрессивная
Метод сжатия                             : С потерями
Бит/(Пиксели*Кадры)                      : 0.248
Размер потока                            : 494 Мбайт (90%)
Библиотека кодирования                   : XviD 1.2.1 (UTC 2008-12-04)

Аудио
Идентификатор                            : 1
Формат                                   : AC-3
Формат/Информация                        : Audio Coding 3
Коммерческое название                    : Dolby Digital
Идентификатор кодека                     : 2000
Продолжительность                        : 38 м. 38 с.
Вид битрейта                             : Постоянный
Битрейт                                  : 192 Кбит/сек
Каналы                                   : 2 канала
Channel layout                           : L R
Частота                                  : 48,0 КГц
Частота кадров                           : 31,250 кадров/сек (1536 SPF)
Битовая глубина                          : 16 бит
Метод сжатия                             : С потерями
Размер потока                            : 53,1 Мбайт (10%)
Выравнивание                             : Разделение по промежуткам
Продолжительность промежутка             : 40  мс. (1,00 видеокадр)
Время предзагрузки промежутка            : 500  мс.
ServiceKind/String                       : Complete Main
Скриншоты:
(2018.09.16) SATRip.avi.torrent
Трекер: Зарегистрирован

magnet ссылка

 


Скачать .torrent

11 KB

Статус: проверено (by Арт33 в 16-Сен-18 09:58)
Зарегистрирован: 16-Сен-18 09:26
Скачан: 53 раза
Размер: 550 MB | 
Поблагодарили:
Скачать Военная приемка. Дивизия Энгельса или воздушная часть ядерной триады (эфир от 16.09.2018) [2018, Документальный, военное дело, SATRip] торрент
 


Похожие раздачи

Текущее время: 18-Ноя 06:38

Часовой пояс: GMT + 3



Вы не можете начинать темы
Вы не можете отвечать на сообщения
Вы не можете редактировать свои сообщения
Вы не можете удалять свои сообщения
Вы не можете голосовать в опросах
Вы не можете прикреплять файлы к сообщениям
Вы не можете скачивать файлы