Loading...
Error
 

Скачать торрент (Pop) VA - The All Time Greatest Love Songs of the 60's, 70's, 80's & 90's, Volume II (2CD) - 1997 [FLAC, image +.cue, lossless]

 
Автор Сообщение

trygg

post 16-Сен-18 09:29


VA - The All Time Greatest Love Songs of the 60's, 70's, 80's & 90's, Volume II (2CD)


pic
Год издания: 1997
Страна: pic
Жанр: Pop
Продолжительность: 02:35:14
Лейбл издания: Sony Music TV, Columbia
Страна-выпуска диска: UK pic
Номер по каталогу: SONYTV34CD
Формат: FLAC
Битрейт аудио: Lossless
Тип рипа: image +.cue
Наличие сканов в содержимом раздачи: да

pic
Трэклист
CD 1 | 01:16:59
pic
01. Wet Wet Wet - Love Is All Around (3:54)
02. Celine Dion - Because You Loved Me (4:34)
03. Cherry - 7 Seconds (4:09)
04. Texas - Say What You Want (3:50)
05. Gary Barlow - Forever Love (4:30)
06. Nilsson - All I Think About Is You (4:06)
07. Art Garfunkel - I Only Have Eyes for You (3:37)
08. 3T - Anything (4:25)
09. Babyface - Everytime I Close My Eyes (4:55)
10. Linda Ronstadt - Don't Know Much (3:34)
11. Boyzone - Words (4:00)
12. Gloria Estefan - Anything for You (3:20)
13. Chris de Burgh - Lady in Red (4:11)
14. East 17 - If You Ever (feat. Gabrielle) (3:46)
15. Backstreet Boys - Quit Playing Games (with My Heart) (3:48)
16. Luther Vandross - Always and Forever (4:05)
17. Dina Carroll - The Perfect Year (3:47)
18. Diana Ross & Lionel Richie - Endless Love (4:25)
19. The Chimes - I Still Haven't Found What I'm Looking For (4:02)
CD 2 | 01:18:14
pic
01. R. Kelly - I Believe I Can Fly (4:43)
02. Michael Jackson - Will You Be There (5:19)
03. Elton John - The One (5:51)
04. Alison Moyet - All Cried Out (3:41)
05. Simply Red - Remembering the First Time (4:44)
06. Fern Kinney - Together We Are Beautiful (3:03)
07. George Benson - The Greatest Love of All (5:34)
08. Justin Hayward - Forever Autumn (4:08)
09. Robson & Jerome - What Becomes of the Broken Hearted (3:22)
10. The Righteous Brothers - You've Lost That Loving Feeling (3:43)
11. 10cc - I'm Not in Love (6:00)
12. Amanda Marshall - Beautiful Goodbye (3:19)
13. Billy Joel - She's Always a Woman (3:20)
14. Bob Dylan - If Not for You (2:41)
15. Crowded House - Don't Dream It's Over (3:48)
16. Neil Diamond - If You Know What I Mean (3:42)
17. Peter Cetera - Glory of Love (4:20)
18. George Michael - Tonight (live) (6:56)

pic
Лог создания рипа
CD 1

Код:

Exact Audio Copy V1.3 from 2. September 2016

EAC extraction logfile from 4. September 2018, 17:33

Various Artists / The All Time Greatest Love Songs of the 60's, 70's, 80's & 90's, Volume II CD1

Used drive  : PIONEER DVD-RW  DVR-212   Adapter: 3  ID: 0

Read mode               : Secure
Utilize accurate stream : Yes
Defeat audio cache      : Yes
Make use of C2 pointers : No

Read offset correction                      : 48
Overread into Lead-In and Lead-Out          : No
Fill up missing offset samples with silence : Yes
Delete leading and trailing silent blocks   : No
Null samples used in CRC calculations       : Yes
Used interface                              : Installed external ASPI interface

Used output format              : User Defined Encoder
Selected bitrate                : 128 kBit/s
Quality                         : High
Add ID3 tag                     : No
Command line compressor         : C:\Program Files (x86)\Exact Audio Copy\FLAC\FLAC.EXE
Additional command line options : -V -8 -T "Date=%year%" -T "Genre=%genre%" -T"COMMENT=Ripped by vinni0809" -8 -V %source%

TOC of the extracted CD

     Track |   Start  |  Length  | Start sector | End sector
    ---------------------------------------------------------
        1  |  0:00.00 |  3:53.50 |         0    |    17524
        2  |  3:53.50 |  4:34.25 |     17525    |    38099
        3  |  8:28.00 |  4:09.00 |     38100    |    56774
        4  | 12:37.00 |  3:50.00 |     56775    |    74024
        5  | 16:27.00 |  4:30.00 |     74025    |    94274
        6  | 20:57.00 |  4:06.37 |     94275    |   112761
        7  | 25:03.37 |  3:37.35 |    112762    |   129071
        8  | 28:40.72 |  4:25.03 |    129072    |   148949
        9  | 33:06.00 |  4:55.00 |    148950    |   171074
       10  | 38:01.00 |  3:34.12 |    171075    |   187136
       11  | 41:35.12 |  4:00.18 |    187137    |   205154
       12  | 45:35.30 |  3:19.55 |    205155    |   220134
       13  | 48:55.10 |  4:10.65 |    220135    |   238949
       14  | 53:06.00 |  3:46.00 |    238950    |   255899
       15  | 56:52.00 |  3:48.37 |    255900    |   273036
       16  | 60:40.37 |  4:04.50 |    273037    |   291386
       17  | 64:45.12 |  3:46.63 |    291387    |   308399
       18  | 68:32.00 |  4:25.00 |    308400    |   328274
       19  | 72:57.00 |  4:02.17 |    328275    |   346441

Range status and errors

Selected range

     Filename F:\vinni0809\Various Artists - The All Time Greatest Love Songs of the 60's, 70's, 80's & 90's, Volume II CD1.wav

     Peak level 100.0 %
     Extraction speed 3.1 X
     Range quality 100.0 %
     Test CRC 928F21C0
     Copy CRC 928F21C0
     Copy OK

No errors occurred

AccurateRip summary

Track  1  accurately ripped (confidence 17)  [1EE36CCE]  (AR v2)
Track  2  accurately ripped (confidence 17)  [D3CEBFED]  (AR v2)
Track  3  accurately ripped (confidence 19)  [45268452]  (AR v2)
Track  4  accurately ripped (confidence 19)  [21830F79]  (AR v2)
Track  5  accurately ripped (confidence 18)  [39DB78EF]  (AR v2)
Track  6  accurately ripped (confidence 18)  [69BD8751]  (AR v2)
Track  7  accurately ripped (confidence 18)  [B8AE14EE]  (AR v2)
Track  8  accurately ripped (confidence 18)  [7CF5E926]  (AR v2)
Track  9  accurately ripped (confidence 18)  [5E72E3A7]  (AR v2)
Track 10  accurately ripped (confidence 18)  [1A3EEDCE]  (AR v2)
Track 11  accurately ripped (confidence 16)  [6DF0494B]  (AR v2)
Track 12  accurately ripped (confidence 17)  [078E4EFA]  (AR v2)
Track 13  accurately ripped (confidence 16)  [9C65A8AB]  (AR v2)
Track 14  accurately ripped (confidence 17)  [8E5A5F74]  (AR v2)
Track 15  accurately ripped (confidence 17)  [33FAD754]  (AR v2)
Track 16  accurately ripped (confidence 18)  [9F99A15C]  (AR v2)
Track 17  accurately ripped (confidence 18)  [B3A1D487]  (AR v2)
Track 18  accurately ripped (confidence 17)  [26714C35]  (AR v2)
Track 19  accurately ripped (confidence 17)  [A761A849]  (AR v2)

All tracks accurately ripped

End of status report
CD 2

Код:

Exact Audio Copy V1.3 from 2. September 2016

EAC extraction logfile from 5. September 2018, 9:20

Various Artists / The All Time Greatest Love Songs of the 60's, 70's, 80's & 90's, Volume II CD2

Used drive  : PIONEER DVD-RW  DVR-212   Adapter: 3  ID: 0

Read mode               : Secure
Utilize accurate stream : Yes
Defeat audio cache      : Yes
Make use of C2 pointers : No

Read offset correction                      : 48
Overread into Lead-In and Lead-Out          : No
Fill up missing offset samples with silence : Yes
Delete leading and trailing silent blocks   : No
Null samples used in CRC calculations       : Yes
Used interface                              : Installed external ASPI interface

Used output format              : User Defined Encoder
Selected bitrate                : 128 kBit/s
Quality                         : High
Add ID3 tag                     : No
Command line compressor         : C:\Program Files (x86)\Exact Audio Copy\FLAC\FLAC.EXE
Additional command line options : -V -8 -T "Date=%year%" -T "Genre=%genre%" -T"COMMENT=Ripped by vinni0809" -8 -V %source%

TOC of the extracted CD

     Track |   Start  |  Length  | Start sector | End sector
    ---------------------------------------------------------
        1  |  0:00.00 |  4:43.10 |         0    |    21234
        2  |  4:43.10 |  5:18.45 |     21235    |    45129
        3  | 10:01.55 |  5:51.05 |     45130    |    71459
        4  | 15:52.60 |  3:41.25 |     71460    |    88059
        5  | 19:34.10 |  4:44.00 |     88060    |   109359
        6  | 24:18.10 |  3:02.50 |    109360    |   123059
        7  | 27:20.60 |  5:34.25 |    123060    |   148134
        8  | 32:55.10 |  4:08.37 |    148135    |   166771
        9  | 37:03.47 |  3:21.65 |    166772    |   181911
       10  | 40:25.37 |  3:42.48 |    181912    |   198609
       11  | 44:08.10 |  5:59.62 |    198610    |   225596
       12  | 50:07.72 |  3:18.58 |    225597    |   240504
       13  | 53:26.55 |  3:20.30 |    240505    |   255534
       14  | 56:47.10 |  2:41.00 |    255535    |   267609
       15  | 59:28.10 |  3:48.25 |    267610    |   284734
       16  | 63:16.35 |  3:42.00 |    284735    |   301384
       17  | 66:58.35 |  4:20.10 |    301385    |   320894
       18  | 71:18.45 |  6:55.57 |    320895    |   352076

Range status and errors

Selected range

     Filename F:\vinni0809\Various Artists - The All Time Greatest Love Songs of the 60's, 70's, 80's & 90's, Volume II CD2.wav

     Peak level 100.0 %
     Extraction speed 3.1 X
     Range quality 100.0 %
     Test CRC 17D215F4
     Copy CRC 17D215F4
     Copy OK

No errors occurred

AccurateRip summary

Track  1  accurately ripped (confidence 16)  [69BA4D15]  (AR v2)
Track  2  accurately ripped (confidence 17)  [81A0B42E]  (AR v2)
Track  3  accurately ripped (confidence 17)  [3A8F6CC9]  (AR v2)
Track  4  accurately ripped (confidence 17)  [B9F22382]  (AR v2)
Track  5  accurately ripped (confidence 17)  [477FAE2C]  (AR v2)
Track  6  accurately ripped (confidence 16)  [AF0B4964]  (AR v2)
Track  7  accurately ripped (confidence 17)  [CB4886D9]  (AR v2)
Track  8  accurately ripped (confidence 16)  [55EA9C43]  (AR v2)
Track  9  accurately ripped (confidence 17)  [21F148F9]  (AR v2)
Track 10  accurately ripped (confidence 16)  [4FA4B060]  (AR v2)
Track 11  accurately ripped (confidence 16)  [4C95BA1B]  (AR v2)
Track 12  accurately ripped (confidence 17)  [EFF71C76]  (AR v2)
Track 13  accurately ripped (confidence 16)  [6B2B5535]  (AR v2)
Track 14  accurately ripped (confidence 17)  [687777B8]  (AR v2)
Track 15  accurately ripped (confidence 18)  [9D4145B4]  (AR v2)
Track 16  accurately ripped (confidence 17)  [5F0188B0]  (AR v2)
Track 17  accurately ripped (confidence 16)  [72F0D1BB]  (AR v2)
Track 18  accurately ripped (confidence 16)  [03268DC7]  (AR v2)

All tracks accurately ripped

End of status report
Индексная карта (non-compilant .cue)
CD 1

Код:

REM GENRE Pop
REM DATE 1997
REM DISCID 3B120B13
REM COMMENT "ExactAudioCopy v1.3"
PERFORMER "Various Artists"
TITLE "The All Time Greatest Love Songs of the 60's, 70's, 80's & 90's, Volume II CD1"
REM COMPOSER ""
FILE "Various Artists - The All Time Greatest Love Songs of the 60's, 70's, 80's & 90's, Volume II CD1.flac" WAVE
  TRACK 01 AUDIO
    TITLE "Love Is All Around"
    PERFORMER "Wet Wet Wet"
    REM COMPOSER ""
    INDEX 01 00:00:00
  TRACK 02 AUDIO
    TITLE "Because You Loved Me"
    PERFORMER "Celine Dion"
    REM COMPOSER ""
    INDEX 01 03:53:50
  TRACK 03 AUDIO
    TITLE "7 Seconds"
    PERFORMER "Cherry"
    REM COMPOSER ""
    INDEX 00 08:26:42
    INDEX 01 08:28:00
  TRACK 04 AUDIO
    TITLE "Say What You Want"
    PERFORMER "Texas"
    REM COMPOSER ""
    INDEX 01 12:37:00
  TRACK 05 AUDIO
    TITLE "Forever Love"
    PERFORMER "Gary Barlow"
    REM COMPOSER ""
    INDEX 00 16:25:55
    INDEX 01 16:27:00
  TRACK 06 AUDIO
    TITLE "All I Think About Is You"
    PERFORMER "Nilsson"
    REM COMPOSER ""
    INDEX 00 20:55:67
    INDEX 01 20:57:00
  TRACK 07 AUDIO
    TITLE "I Only Have Eyes for You"
    PERFORMER "Art Garfunkel"
    REM COMPOSER ""
    INDEX 00 25:01:47
    INDEX 01 25:03:37
  TRACK 08 AUDIO
    TITLE "Anything"
    PERFORMER "3T"
    REM COMPOSER ""
    INDEX 00 28:38:70
    INDEX 01 28:40:72
  TRACK 09 AUDIO
    TITLE "Everytime I Close My Eyes"
    PERFORMER "Babyface"
    REM COMPOSER ""
    INDEX 00 33:04:65
    INDEX 01 33:06:00
  TRACK 10 AUDIO
    TITLE "Don't Know Much"
    PERFORMER "Linda Ronstadt"
    REM COMPOSER ""
    INDEX 00 37:59:42
    INDEX 01 38:01:00
  TRACK 11 AUDIO
    TITLE "Words"
    PERFORMER "Boyzone"
    REM COMPOSER ""
    INDEX 00 41:33:32
    INDEX 01 41:35:12
  TRACK 12 AUDIO
    TITLE "Anything for You"
    PERFORMER "Gloria Estefan"
    REM COMPOSER ""
    INDEX 00 45:34:15
    INDEX 01 45:35:30
  TRACK 13 AUDIO
    TITLE "Lady in Red"
    PERFORMER "Chris de Burgh"
    REM COMPOSER ""
    INDEX 01 48:55:10
  TRACK 14 AUDIO
    TITLE "If You Ever (feat. Gabrielle)"
    PERFORMER "East 17"
    REM COMPOSER ""
    INDEX 00 53:04:62
    INDEX 01 53:06:00
  TRACK 15 AUDIO
    TITLE "Quit Playing Games (with My Heart)"
    PERFORMER "Backstreet Boys"
    REM COMPOSER ""
    INDEX 00 56:50:17
    INDEX 01 56:52:00
  TRACK 16 AUDIO
    TITLE "Always and Forever"
    PERFORMER "Luther Vandross"
    REM COMPOSER ""
    INDEX 00 60:39:10
    INDEX 01 60:40:37
  TRACK 17 AUDIO
    TITLE "The Perfect Year"
    PERFORMER "Dina Carroll"
    REM COMPOSER ""
    INDEX 00 64:43:35
    INDEX 01 64:45:12
  TRACK 18 AUDIO
    TITLE "Endless Love"
    PERFORMER "Diana Ross & Lionel Richie"
    REM COMPOSER ""
    INDEX 00 68:30:47
    INDEX 01 68:32:00
  TRACK 19 AUDIO
    TITLE "I Still Haven't Found What I'm Looking For"
    PERFORMER "The Chimes"
    REM COMPOSER ""
    INDEX 00 72:55:60
    INDEX 01 72:57:00
CD 2

Код:

REM GENRE Pop
REM DATE 1997
REM DISCID F9125612
REM COMMENT "ExactAudioCopy v1.3"
PERFORMER "Various Artists"
TITLE "The All Time Greatest Love Songs of the 60's, 70's, 80's & 90's, Volume II CD2"
REM COMPOSER ""
FILE "Various Artists - The All Time Greatest Love Songs of the 60's, 70's, 80's & 90's, Volume II CD2.flac" WAVE
  TRACK 01 AUDIO
    TITLE "I Believe I Can Fly"
    PERFORMER "R. Kelly"
    REM COMPOSER ""
    INDEX 01 00:00:00
  TRACK 02 AUDIO
    TITLE "Will You Be There"
    PERFORMER "Michael Jackson"
    REM COMPOSER ""
    INDEX 01 04:43:10
  TRACK 03 AUDIO
    TITLE "The One"
    PERFORMER "Elton John"
    REM COMPOSER ""
    INDEX 00 10:00:32
    INDEX 01 10:01:55
  TRACK 04 AUDIO
    TITLE "All Cried Out"
    PERFORMER "Alison Moyet"
    REM COMPOSER ""
    INDEX 00 15:51:47
    INDEX 01 15:52:60
  TRACK 05 AUDIO
    TITLE "Remembering the First Time"
    PERFORMER "Simply Red"
    REM COMPOSER ""
    INDEX 01 19:34:10
  TRACK 06 AUDIO
    TITLE "Together We Are Beautiful"
    PERFORMER "Fern Kinney"
    REM COMPOSER ""
    INDEX 01 24:18:10
  TRACK 07 AUDIO
    TITLE "The Greatest Love of All"
    PERFORMER "George Benson"
    REM COMPOSER ""
    INDEX 01 27:20:60
  TRACK 08 AUDIO
    TITLE "Forever Autumn"
    PERFORMER "Justin Hayward"
    REM COMPOSER ""
    INDEX 01 32:55:10
  TRACK 09 AUDIO
    TITLE "What Becomes of the Broken Hearted"
    PERFORMER "Robson & Jerome"
    REM COMPOSER ""
    INDEX 01 37:03:47
  TRACK 10 AUDIO
    TITLE "You've Lost That Loving Feeling"
    PERFORMER "The Righteous Brothers"
    REM COMPOSER ""
    INDEX 01 40:25:37
  TRACK 11 AUDIO
    TITLE "I'm Not in Love"
    PERFORMER "10cc"
    REM COMPOSER ""
    INDEX 01 44:08:10
  TRACK 12 AUDIO
    TITLE "Beautiful Goodbye"
    PERFORMER "Amanda Marshall"
    REM COMPOSER ""
    INDEX 00 50:06:57
    INDEX 01 50:07:72
  TRACK 13 AUDIO
    TITLE "She's Always a Woman"
    PERFORMER "Billy Joel"
    REM COMPOSER ""
    INDEX 01 53:26:55
  TRACK 14 AUDIO
    TITLE "If Not for You"
    PERFORMER "Bob Dylan"
    REM COMPOSER ""
    INDEX 01 56:47:10
  TRACK 15 AUDIO
    TITLE "Don't Dream It's Over"
    PERFORMER "Crowded House"
    REM COMPOSER ""
    INDEX 01 59:28:10
  TRACK 16 AUDIO
    TITLE "If You Know What I Mean"
    PERFORMER "Neil Diamond"
    REM COMPOSER ""
    INDEX 01 63:16:35
  TRACK 17 AUDIO
    TITLE "Glory of Love"
    PERFORMER "Peter Cetera"
    REM COMPOSER ""
    INDEX 00 66:56:57
    INDEX 01 66:58:35
  TRACK 18 AUDIO
    TITLE "Tonight (live)"
    PERFORMER "George Michael"
    REM COMPOSER ""
    INDEX 01 71:18:45


pic
pic
VA - The All Time Greatest Love Songs of the 60's, 70's, 80's & 90's, Volume II.torrent
Трекер: Зарегистрирован

magnet ссылка

 


Скачать .torrent

14 KB

Статус: проверено (by Snowden в 16-Сен-18 10:40)
Зарегистрирован: 16-Сен-18 09:29
Скачан: 24 раза
Размер: 1.06 GB | 
Поблагодарили:
Скачать (Pop) VA - The All Time Greatest Love Songs of the 60's, 70's, 80's & 90's, Volume II (2CD) - 1997 [FLAC, image +.cue, lossless] торрент
 


Похожие раздачи

Текущее время: 26-Сен 05:46

Часовой пояс: GMT + 3



Вы не можете начинать темы
Вы не можете отвечать на сообщения
Вы не можете редактировать свои сообщения
Вы не можете удалять свои сообщения
Вы не можете голосовать в опросах
Вы не можете прикреплять файлы к сообщениям
Вы не можете скачивать файлы