Loading...
Error
 

Скачать торрент (Rock, Country Rock, Soft Rock, Folk Rock) Eagles – 1972-1999 Selected Works (4CD BOX SET) - 2000 [FLAC, image +.cue, lossless]

 
Автор Сообщение

trygg

post 12-Янв-19 15:23


Eagles – 1972-1999 Selected Works (4CD BOX SET)


pic
Год издания: 2000
Страна: USA pic
Жанр: Rock, Country Rock, Soft Rock, Folk Rock
Продолжительность: 03:58:00
Лейбл издания: Elektra
Страна-выпуска диска: EU pic
Номер по каталогу: 8122796239
Формат: FLAC
Битрейт аудио: Lossless
Тип рипа: image +.cue
Наличие сканов в содержимом раздачи: да

pic
Трэклист
CD 1 - The Early Days | 00:49:45
pic
01. Take It Easy (3:32)
02. Hollywood Waltz (4:02)
03. Already Gone (4:16)
04. Doolin' Dalton (3:28)
05. Midnight Flyer (3:59)
06. Tequila Sunrise (2:54)
07. Witchy Woman (4:12)
08. Train Leaves Here This Morning (4:11)
09. Outlaw Man (3:30)
10. Peaceful Easy Feeling (4:19)
11. James Dean (3:39)
12. Saturday Night (3:21)
13. On the Border (4:23)
CD 2 - The Ballads | 00:58:26
pic
01. Wasted Time (reprise) (1:24)
02. Wasted Time (4:57)
03. I Can't Tell You Why (4:55)
04. Lyin' Eyes (6:22)
05. Pretty Maids All in a Row (4:00)
06. Desperado (3:34)
07. Try and Love Again (5:12)
08. The Best of My Love (4:35)
09. New Kid in Town (5:05)
10. Love Will Keep Us Alive (4:03)
11. The Sad Cafe (5:34)
12. Take It to the Limit (4:48)
13. After the Thrill Is Gone (3:57)
CD 3 - The Fast Lane | 01:09:55
pic
01. One of These Nights (intro) (1:59)
02. One of These Nights (4:51)
03. Disco Strangler (2:45)
04. Heartache Tonight (4:26)
05. Hotel California (6:32)
06. Born to Boogie (2:18)
07. In the City (3:45)
08. Get Over It (3:31)
09. King of Hollywood (6:29)
10. Too Many Hands (4:41)
11. Life in the Fast Lane (4:47)
12. The Long Run (3:42)
13. Long Run Leftovers (3:02)
14. The Last Resort (7:25)
15. Random Victims, Part 3 (9:42)
CD 4 - The Millenium Concert | 00:59:54
pic
01. Hotel California (6:57)
02. Victim of Love (5:01)
03. Peaceful Easy Feeling (4:32)
04. Please Come Home for Christmas (3:54)
05. Ol' 55 (5:20)
06. Take It to the Limit (4:02)
07. Those Shoes (6:13)
08. Funky New Year (3:46)
09. Dirty Laundry (5:54)
10. Funk #49 (3:48)
11. All She Wants to Do Is Dance (5:21)
12. The Best of My Love (5:06)

pic
Лог создания рипа
CD 1

Код:

Exact Audio Copy V1.0 beta 6 from 9. April 2015

EAC extraction logfile from 4. January 2019, 15:39

Eagles / Selected Works 1972–1999 [The Early Days]

Used drive  : ATAPI   iHAS122   C   Adapter: 1  ID: 0

Read mode               : Secure
Utilize accurate stream : Yes
Defeat audio cache      : Yes
Make use of C2 pointers : No

Read offset correction                      : 6
Overread into Lead-In and Lead-Out          : No
Fill up missing offset samples with silence : Yes
Delete leading and trailing silent blocks   : No
Null samples used in CRC calculations       : Yes
Used interface                              : Native Win32 interface for Win NT & 2000

Used output format : Internal WAV Routines
Sample format      : 44.100 Hz; 16 Bit; Stereo

TOC of the extracted CD

     Track |   Start  |  Length  | Start sector | End sector
    ---------------------------------------------------------
        1  |  0:00.00 |  3:31.64 |         0    |    15888
        2  |  3:31.64 |  4:02.31 |     15889    |    34069
        3  |  7:34.20 |  4:15.47 |     34070    |    53241
        4  | 11:49.67 |  3:27.45 |     53242    |    68811
        5  | 15:17.37 |  3:58.59 |     68812    |    86720
        6  | 19:16.21 |  2:53.55 |     86721    |    99750
        7  | 22:10.01 |  4:11.68 |     99751    |   118643
        8  | 26:21.69 |  4:11.09 |    118644    |   137477
        9  | 30:33.03 |  3:29.44 |    137478    |   153196
       10  | 34:02.47 |  4:18.47 |    153197    |   172593
       11  | 38:21.19 |  3:38.47 |    172594    |   188990
       12  | 41:59.66 |  3:21.15 |    188991    |   204080
       13  | 45:21.06 |  4:23.35 |    204081    |   223840

Range status and errors

Selected range

     Filename C:\Users\London\Desktop\EAGLES\Eagles - Selected Works 1972–1999 [The Early Days].wav

     Peak level 99.5 %
     Extraction speed 8.1 X
     Range quality 100.0 %
     Test CRC F25AFE6A
     Copy CRC F25AFE6A
     Copy OK

No errors occurred

AccurateRip summary

Track  1  accurately ripped (confidence 64)  [66BCE762]  (AR v2)
Track  2  accurately ripped (confidence 64)  [DFB6DEF0]  (AR v2)
Track  3  accurately ripped (confidence 65)  [2FBEE247]  (AR v2)
Track  4  accurately ripped (confidence 65)  [0DEFC988]  (AR v2)
Track  5  accurately ripped (confidence 65)  [3E4C86DC]  (AR v2)
Track  6  accurately ripped (confidence 65)  [69332A46]  (AR v2)
Track  7  accurately ripped (confidence 65)  [5FD12BF1]  (AR v2)
Track  8  accurately ripped (confidence 65)  [163FFDAD]  (AR v2)
Track  9  accurately ripped (confidence 65)  [277ECE9F]  (AR v2)
Track 10  accurately ripped (confidence 65)  [1113451B]  (AR v2)
Track 11  accurately ripped (confidence 65)  [5D05B72F]  (AR v2)
Track 12  accurately ripped (confidence 65)  [A28277CF]  (AR v2)
Track 13  accurately ripped (confidence 60)  [23366199]  (AR v2)

All tracks accurately ripped

End of status report
CD 2

Код:

Exact Audio Copy V1.0 beta 6 from 9. April 2015

EAC extraction logfile from 4. January 2019, 14:34

Eagles / Selected Works 1972–1999 [The Ballads]

Used drive  : ATAPI   iHAS122   C   Adapter: 1  ID: 0

Read mode               : Secure
Utilize accurate stream : Yes
Defeat audio cache      : Yes
Make use of C2 pointers : No

Read offset correction                      : 6
Overread into Lead-In and Lead-Out          : No
Fill up missing offset samples with silence : Yes
Delete leading and trailing silent blocks   : No
Null samples used in CRC calculations       : Yes
Used interface                              : Native Win32 interface for Win NT & 2000

Used output format : Internal WAV Routines
Sample format      : 44.100 Hz; 16 Bit; Stereo

TOC of the extracted CD

     Track |   Start  |  Length  | Start sector | End sector
    ---------------------------------------------------------
        1  |  0:00.00 |  1:23.47 |         0    |     6271
        2  |  1:23.47 |  4:56.38 |      6272    |    28509
        3  |  6:20.10 |  4:55.25 |     28510    |    50659
        4  | 11:15.35 |  6:22.25 |     50660    |    79334
        5  | 17:37.60 |  4:00.17 |     79335    |    97351
        6  | 21:38.02 |  3:34.17 |     97352    |   113418
        7  | 25:12.19 |  5:11.54 |    113419    |   136797
        8  | 30:23.73 |  4:35.20 |    136798    |   157442
        9  | 34:59.18 |  5:05.24 |    157443    |   180341
       10  | 40:04.42 |  4:02.74 |    180342    |   198565
       11  | 44:07.41 |  5:33.38 |    198566    |   223578
       12  | 49:41.04 |  4:47.73 |    223579    |   245176
       13  | 54:29.02 |  3:57.04 |    245177    |   262955

Range status and errors

Selected range

     Filename C:\Users\London\Desktop\EAGLES\Eagles - Selected Works 1972–1999 [The Ballads].wav

     Peak level 100.0 %
     Extraction speed 8.9 X
     Range quality 100.0 %
     Test CRC 3C8AD60A
     Copy CRC 3C8AD60A
     Copy OK

No errors occurred

AccurateRip summary

Track  1  accurately ripped (confidence 62)  [3C35CFE1]  (AR v2)
Track  2  accurately ripped (confidence 62)  [7AC190AB]  (AR v2)
Track  3  accurately ripped (confidence 62)  [CCBE6CFF]  (AR v2)
Track  4  accurately ripped (confidence 62)  [0BBDDF24]  (AR v2)
Track  5  accurately ripped (confidence 62)  [CEFF5D1F]  (AR v2)
Track  6  accurately ripped (confidence 62)  [74221301]  (AR v2)
Track  7  accurately ripped (confidence 62)  [74A9D733]  (AR v2)
Track  8  accurately ripped (confidence 61)  [B195566A]  (AR v2)
Track  9  accurately ripped (confidence 62)  [A9B5F3DA]  (AR v2)
Track 10  accurately ripped (confidence 62)  [353723BC]  (AR v2)
Track 11  accurately ripped (confidence 60)  [FA312149]  (AR v2)
Track 12  accurately ripped (confidence 61)  [1432667A]  (AR v2)
Track 13  accurately ripped (confidence 60)  [2100EDE1]  (AR v2)

All tracks accurately ripped

End of status report
CD 3

Код:

Exact Audio Copy V1.0 beta 6 from 9. April 2015

EAC extraction logfile from 4. January 2019, 15:19

Eagles / Selected Works 1972–1999 [The Fast Lane]

Used drive  : ATAPI   iHAS122   C   Adapter: 1  ID: 0

Read mode               : Secure
Utilize accurate stream : Yes
Defeat audio cache      : Yes
Make use of C2 pointers : No

Read offset correction                      : 6
Overread into Lead-In and Lead-Out          : No
Fill up missing offset samples with silence : Yes
Delete leading and trailing silent blocks   : No
Null samples used in CRC calculations       : Yes
Used interface                              : Native Win32 interface for Win NT & 2000

Used output format : Internal WAV Routines
Sample format      : 44.100 Hz; 16 Bit; Stereo

TOC of the extracted CD

     Track |   Start  |  Length  | Start sector | End sector
    ---------------------------------------------------------
        1  |  0:00.00 |  1:59.00 |         0    |     8924
        2  |  1:59.00 |  4:51.14 |      8925    |    30763
        3  |  6:50.14 |  2:44.68 |     30764    |    43131
        4  |  9:35.07 |  4:25.62 |     43132    |    63068
        5  | 14:00.69 |  6:31.62 |     63069    |    92455
        6  | 20:32.56 |  2:17.51 |     92456    |   102781
        7  | 22:50.32 |  3:44.72 |    102782    |   119653
        8  | 26:35.29 |  3:31.23 |    119654    |   135501
        9  | 30:06.52 |  6:28.60 |    135502    |   164661
       10  | 36:35.37 |  4:41.21 |    164662    |   185757
       11  | 41:16.58 |  4:46.54 |    185758    |   207261
       12  | 46:03.37 |  3:41.59 |    207262    |   223895
       13  | 49:45.21 |  3:02.28 |    223896    |   237573
       14  | 52:47.49 |  7:25.34 |    237574    |   270982
       15  | 60:13.08 |  9:42.08 |    270983    |   314640

Range status and errors

Selected range

     Filename C:\Users\London\Desktop\EAGLES\Eagles - Selected Works 1972–1999 [The Fast Lane].wav

     Peak level 100.0 %
     Extraction speed 9.7 X
     Range quality 100.0 %
     Test CRC 6D2AEBA4
     Copy CRC 6D2AEBA4
     Copy OK

No errors occurred

AccurateRip summary

Track  1  accurately ripped (confidence 59)  [A4AB486C]  (AR v2)
Track  2  accurately ripped (confidence 62)  [EE6A4D6D]  (AR v2)
Track  3  accurately ripped (confidence 60)  [FAC686C4]  (AR v2)
Track  4  accurately ripped (confidence 62)  [23E25853]  (AR v2)
Track  5  accurately ripped (confidence 63)  [365CD049]  (AR v2)
Track  6  accurately ripped (confidence 62)  [6978CDC8]  (AR v2)
Track  7  accurately ripped (confidence 63)  [B4073D2C]  (AR v2)
Track  8  accurately ripped (confidence 63)  [F6B63FF2]  (AR v2)
Track  9  accurately ripped (confidence 62)  [52383DF0]  (AR v2)
Track 10  accurately ripped (confidence 63)  [E5CB4F09]  (AR v2)
Track 11  accurately ripped (confidence 62)  [078644D3]  (AR v2)
Track 12  accurately ripped (confidence 63)  [E31B1924]  (AR v2)
Track 13  accurately ripped (confidence 63)  [5F9F0607]  (AR v2)
Track 14  accurately ripped (confidence 63)  [1A30B181]  (AR v2)
Track 15  accurately ripped (confidence 58)  [40D516C5]  (AR v2)

All tracks accurately ripped

End of status report
CD 4

Код:

Exact Audio Copy V1.0 beta 6 from 9. April 2015

EAC extraction logfile from 4. January 2019, 14:53

Eagles / Selected Works 1972–1999 [The Millenium Concert]

Used drive  : ATAPI   iHAS122   C   Adapter: 1  ID: 0

Read mode               : Secure
Utilize accurate stream : Yes
Defeat audio cache      : Yes
Make use of C2 pointers : No

Read offset correction                      : 6
Overread into Lead-In and Lead-Out          : No
Fill up missing offset samples with silence : Yes
Delete leading and trailing silent blocks   : No
Null samples used in CRC calculations       : Yes
Used interface                              : Native Win32 interface for Win NT & 2000

Used output format : Internal WAV Routines
Sample format      : 44.100 Hz; 16 Bit; Stereo

TOC of the extracted CD

     Track |   Start  |  Length  | Start sector | End sector
    ---------------------------------------------------------
        1  |  0:00.00 |  6:56.74 |         0    |    31273
        2  |  6:56.74 |  5:01.19 |     31274    |    53867
        3  | 11:58.18 |  4:32.08 |     53868    |    74275
        4  | 16:30.26 |  3:53.63 |     74276    |    91813
        5  | 20:24.14 |  5:19.65 |     91814    |   115803
        6  | 25:44.04 |  4:02.17 |    115804    |   133970
        7  | 29:46.21 |  6:12.53 |    133971    |   161923
        8  | 35:58.74 |  3:45.56 |    161924    |   178854
        9  | 39:44.55 |  5:54.30 |    178855    |   205434
       10  | 45:39.10 |  3:47.57 |    205435    |   222516
       11  | 49:26.67 |  5:21.04 |    222517    |   246595
       12  | 54:47.71 |  5:05.72 |    246596    |   269542

Range status and errors

Selected range

     Filename C:\Users\London\Desktop\EAGLES\Eagles - Selected Works 1972–1999 [The Millenium Concert].wav

     Peak level 100.0 %
     Extraction speed 9.0 X
     Range quality 99.9 %
     Test CRC F018BBDD
     Copy CRC F018BBDD
     Copy OK

No errors occurred

AccurateRip summary

Track  1  accurately ripped (confidence 62)  [D2981F2A]  (AR v2)
Track  2  accurately ripped (confidence 63)  [A3BD7949]  (AR v2)
Track  3  accurately ripped (confidence 62)  [E55259C3]  (AR v2)
Track  4  accurately ripped (confidence 62)  [6A30457C]  (AR v2)
Track  5  accurately ripped (confidence 62)  [230427A3]  (AR v2)
Track  6  accurately ripped (confidence 62)  [8922A060]  (AR v2)
Track  7  accurately ripped (confidence 62)  [8A8BDB97]  (AR v2)
Track  8  accurately ripped (confidence 63)  [627B6699]  (AR v2)
Track  9  accurately ripped (confidence 63)  [901C0B68]  (AR v2)
Track 10  accurately ripped (confidence 63)  [251864DA]  (AR v2)
Track 11  accurately ripped (confidence 62)  [12F49A13]  (AR v2)
Track 12  accurately ripped (confidence 60)  [79F63540]  (AR v2)

All tracks accurately ripped

End of status report
Индексная карта (non-compilant .cue)
CD 1

Код:

REM GENRE Rock
REM DATE 2000
REM DISCID 970BA80D
REM COMMENT "ExactAudioCopy v1.0b6"
PERFORMER "Eagles"
TITLE "Selected Works 1972–1999 [The Early Days]"
FILE "Eagles - Selected Works 1972–1999 [The Early Days].flac" WAVE
  TRACK 01 AUDIO
    TITLE "Take It Easy"
    PERFORMER "Eagles"
    INDEX 01 00:00:00
  TRACK 02 AUDIO
    TITLE "Hollywood Waltz"
    PERFORMER "Eagles"
    INDEX 00 03:31:44
    INDEX 01 03:31:64
  TRACK 03 AUDIO
    TITLE "Already Gone"
    PERFORMER "Eagles"
    INDEX 00 07:33:59
    INDEX 01 07:34:20
  TRACK 04 AUDIO
    TITLE "Doolin' Dalton"
    PERFORMER "Eagles"
    INDEX 00 11:49:37
    INDEX 01 11:49:67
  TRACK 05 AUDIO
    TITLE "Midnight Flyer"
    PERFORMER "Eagles"
    INDEX 00 15:16:62
    INDEX 01 15:17:37
  TRACK 06 AUDIO
    TITLE "Tequila Sunrise"
    PERFORMER "Eagles"
    INDEX 00 19:15:59
    INDEX 01 19:16:21
  TRACK 07 AUDIO
    TITLE "Witchy Woman"
    PERFORMER "Eagles"
    INDEX 00 22:09:26
    INDEX 01 22:10:01
  TRACK 08 AUDIO
    TITLE "Train Leaves Here This Morning"
    PERFORMER "Eagles"
    INDEX 00 26:20:69
    INDEX 01 26:21:69
  TRACK 09 AUDIO
    TITLE "Outlaw Man"
    PERFORMER "Eagles"
    INDEX 00 30:32:41
    INDEX 01 30:33:03
  TRACK 10 AUDIO
    TITLE "Peaceful Easy Feeling"
    PERFORMER "Eagles"
    INDEX 00 34:01:72
    INDEX 01 34:02:47
  TRACK 11 AUDIO
    TITLE "James Dean"
    PERFORMER "Eagles"
    INDEX 00 38:20:57
    INDEX 01 38:21:19
  TRACK 12 AUDIO
    TITLE "Saturday Night"
    PERFORMER "Eagles"
    INDEX 00 41:59:46
    INDEX 01 41:59:66
  TRACK 13 AUDIO
    TITLE "On the Border"
    PERFORMER "Eagles"
    INDEX 00 45:20:44
    INDEX 01 45:21:06
CD 2

Код:

REM GENRE Rock
REM DATE 2000
REM DISCID A60DB20D
REM COMMENT "ExactAudioCopy v1.0b6"
PERFORMER "Eagles"
TITLE "Selected Works 1972–1999 [The Ballads]"
FILE "Eagles - Selected Works 1972–1999 [The Ballads].flac" WAVE
  TRACK 01 AUDIO
    TITLE "Wasted Time (reprise)"
    PERFORMER "Eagles"
    INDEX 01 00:00:00
  TRACK 02 AUDIO
    TITLE "Wasted Time"
    PERFORMER "Eagles"
    INDEX 01 01:23:47
  TRACK 03 AUDIO
    TITLE "I Can't Tell You Why"
    PERFORMER "Eagles"
    INDEX 00 06:19:55
    INDEX 01 06:20:10
  TRACK 04 AUDIO
    TITLE "Lyin' Eyes"
    PERFORMER "Eagles"
    INDEX 00 11:15:15
    INDEX 01 11:15:35
  TRACK 05 AUDIO
    TITLE "Pretty Maids All in a Row"
    PERFORMER "Eagles"
    INDEX 00 17:37:40
    INDEX 01 17:37:60
  TRACK 06 AUDIO
    TITLE "Desperado"
    PERFORMER "Eagles"
    INDEX 00 21:37:40
    INDEX 01 21:38:02
  TRACK 07 AUDIO
    TITLE "Try and Love Again"
    PERFORMER "Eagles"
    INDEX 00 25:11:57
    INDEX 01 25:12:19
  TRACK 08 AUDIO
    TITLE "The Best of My Love"
    PERFORMER "Eagles"
    INDEX 00 30:23:23
    INDEX 01 30:23:73
  TRACK 09 AUDIO
    TITLE "New Kid in Town"
    PERFORMER "Eagles"
    INDEX 00 34:58:56
    INDEX 01 34:59:18
  TRACK 10 AUDIO
    TITLE "Love Will Keep Us Alive"
    PERFORMER "Eagles"
    INDEX 00 40:04:22
    INDEX 01 40:04:42
  TRACK 11 AUDIO
    TITLE "The Sad Cafe"
    PERFORMER "Eagles"
    INDEX 00 44:07:11
    INDEX 01 44:07:41
  TRACK 12 AUDIO
    TITLE "Take It to the Limit"
    PERFORMER "Eagles"
    INDEX 00 49:40:29
    INDEX 01 49:41:04
  TRACK 13 AUDIO
    TITLE "After the Thrill Is Gone"
    PERFORMER "Eagles"
    INDEX 00 54:28:27
    INDEX 01 54:29:02
CD 3

Код:

REM GENRE Rock
REM DATE 2000
REM DISCID E410630F
REM COMMENT "ExactAudioCopy v1.0b6"
PERFORMER "Eagles"
TITLE "Selected Works 1972–1999 [The Fast Lane]"
FILE "Eagles - Selected Works 1972–1999 [The Fast Lane].flac" WAVE
  TRACK 01 AUDIO
    TITLE "One of These Nights (intro)"
    PERFORMER "Eagles"
    INDEX 01 00:00:00
  TRACK 02 AUDIO
    TITLE "One of These Nights"
    PERFORMER "Eagles"
    INDEX 01 01:59:00
  TRACK 03 AUDIO
    TITLE "Disco Strangler"
    PERFORMER "Eagles"
    INDEX 01 06:50:14
  TRACK 04 AUDIO
    TITLE "Heartache Tonight"
    PERFORMER "Eagles"
    INDEX 00 09:34:45
    INDEX 01 09:35:07
  TRACK 05 AUDIO
    TITLE "Hotel California"
    PERFORMER "Eagles"
    INDEX 00 14:00:59
    INDEX 01 14:00:69
  TRACK 06 AUDIO
    TITLE "Born to Boogie"
    PERFORMER "Eagles"
    INDEX 00 20:32:19
    INDEX 01 20:32:56
  TRACK 07 AUDIO
    TITLE "In the City"
    PERFORMER "Eagles"
    INDEX 00 22:50:12
    INDEX 01 22:50:32
  TRACK 08 AUDIO
    TITLE "Get Over It"
    PERFORMER "Eagles"
    INDEX 00 26:35:00
    INDEX 01 26:35:29
  TRACK 09 AUDIO
    TITLE "King of Hollywood"
    PERFORMER "Eagles"
    INDEX 01 30:06:52
  TRACK 10 AUDIO
    TITLE "Too Many Hands"
    PERFORMER "Eagles"
    INDEX 00 36:35:00
    INDEX 01 36:35:37
  TRACK 11 AUDIO
    TITLE "Life in the Fast Lane"
    PERFORMER "Eagles"
    INDEX 00 41:16:38
    INDEX 01 41:16:58
  TRACK 12 AUDIO
    TITLE "The Long Run"
    PERFORMER "Eagles"
    INDEX 00 46:03:00
    INDEX 01 46:03:37
  TRACK 13 AUDIO
    TITLE "Long Run Leftovers"
    PERFORMER "Eagles"
    INDEX 00 49:44:46
    INDEX 01 49:45:21
  TRACK 14 AUDIO
    TITLE "The Last Resort"
    PERFORMER "Eagles"
    INDEX 00 52:47:12
    INDEX 01 52:47:49
  TRACK 15 AUDIO
    TITLE "Random Victims, Part 3"
    PERFORMER "Eagles"
    INDEX 00 60:12:33
    INDEX 01 60:13:08
CD 4

Код:

REM GENRE Rock
REM DATE 2000
REM DISCID B80E090C
REM COMMENT "ExactAudioCopy v1.0b6"
PERFORMER "Eagles"
TITLE "Selected Works 1972–1999 [The Millenium Concert]"
FILE "Eagles - Selected Works 1972–1999 [The Millenium Concert].flac" WAVE
  TRACK 01 AUDIO
    TITLE "Hotel California"
    PERFORMER "Eagles"
    INDEX 01 00:00:00
  TRACK 02 AUDIO
    TITLE "Victim of Love"
    PERFORMER "Eagles"
    INDEX 01 06:56:74
  TRACK 03 AUDIO
    TITLE "Peaceful Easy Feeling"
    PERFORMER "Eagles"
    INDEX 01 11:58:18
  TRACK 04 AUDIO
    TITLE "Please Come Home for Christmas"
    PERFORMER "Eagles"
    INDEX 01 16:30:26
  TRACK 05 AUDIO
    TITLE "Ol' 55"
    PERFORMER "Eagles"
    INDEX 01 20:24:14
  TRACK 06 AUDIO
    TITLE "Take It to the Limit"
    PERFORMER "Eagles"
    INDEX 01 25:44:04
  TRACK 07 AUDIO
    TITLE "Those Shoes"
    PERFORMER "Eagles"
    INDEX 01 29:46:21
  TRACK 08 AUDIO
    TITLE "Funky New Year"
    PERFORMER "Eagles"
    INDEX 01 35:58:74
  TRACK 09 AUDIO
    TITLE "Dirty Laundry"
    PERFORMER "Eagles"
    INDEX 01 39:44:55
  TRACK 10 AUDIO
    TITLE "Funk #49"
    PERFORMER "Eagles"
    INDEX 01 45:39:10
  TRACK 11 AUDIO
    TITLE "All She Wants to Do Is Dance"
    PERFORMER "Eagles"
    INDEX 01 49:26:67
  TRACK 12 AUDIO
    TITLE "The Best of My Love"
    PERFORMER "Eagles"
    INDEX 01 54:47:71

pic
для ознакомления:


pic
pic
Eagles – 1972-1999 Selected Works (2000).torrent
Трекер: Зарегистрирован

magnet ссылка

 


Скачать .torrent

20 KB

Статус: проверено (by E IL o T IR i X в 12-Янв-19 15:24)
Зарегистрирован: 12-Янв-19 15:23
Скачан: 11 раз
Размер: 1.59 GB | 
Поблагодарили:
Скачать (Rock, Country Rock, Soft Rock, Folk Rock) Eagles – 1972-1999 Selected Works (4CD BOX SET) - 2000 [FLAC, image +.cue, lossless] торрент
 


Похожие раздачи

Текущее время: 17-Июн 15:48

Часовой пояс: GMT + 3



Вы не можете начинать темы
Вы не можете отвечать на сообщения
Вы не можете редактировать свои сообщения
Вы не можете удалять свои сообщения
Вы не можете голосовать в опросах
Вы не можете прикреплять файлы к сообщениям
Вы не можете скачивать файлы