Loading...
Error
 

Скачать торрент (Rock, Pop, Chanson, Soft Rock) Григорий Лепс - Новые и лучшие песни - 2018 [FLAC, image +.cue, lossless]

 
Автор Сообщение

trygg

post 13-Янв-19 23:48


Григорий Лепс - Новые и лучшие песни


pic
Год издания: 2018
Страна: Russia pic
Жанр: Rock, Pop, Chanson, Soft Rock
Продолжительность: 01:19:29
Лейбл издания: ООО "MEDIA-PLAY"
Страна-выпуска диска: Russia pic
Номер по каталогу: n/a
Формат: FLAC
Битрейт аудио: Lossless
Тип рипа: image +.cue
Наличие сканов в содержимом раздачи: да

pic
Трэклист
pic
pic
01. Орлы или вороны (& Максим Фадеев) (3:29)
02. Рюмка водки на столе (4:32)
03. Разбитая любовь (3:25)
04. Натали (4:47)
05. Снега (4:08)
06. Я поднимаю руки (3:54)
07. Что ж ты натворила (3:37)
08. Уходи по-английски (3:37)
09. Время (3:30)
10. Шелест (4:07)
11. Взрослые игры (4:38)
12. Крыса-ревность (4:10)
13. Я счастливый (3:58)
14. Ну и что (5:34)
15. На заре (4:20)
16. Замерзает Солнце (5:10)
17. Вьюга (4:26)
18. Небо на ладони (3:51)
19. Самый лучший день (Radio Edit) (4:16)

pic
Лог создания рипа

Код:

Exact Audio Copy V1.3 from 2. September 2016

EAC extraction logfile from 1. January 2019, 21:27

Григорий Лепс  / Новые и лучшие песни

Used drive  : TSSTcorpCDDVDW SH-S203D   Adapter: 3  ID: 0

Read mode               : Secure
Utilize accurate stream : Yes
Defeat audio cache      : Yes
Make use of C2 pointers : No

Read offset correction                      : 6
Overread into Lead-In and Lead-Out          : No
Fill up missing offset samples with silence : Yes
Delete leading and trailing silent blocks   : No
Null samples used in CRC calculations       : Yes
Used interface                              : Installed external ASPI interface

Used output format              : User Defined Encoder
Selected bitrate                : 128 kBit/s
Quality                         : High
Add ID3 tag                     : No
Command line compressor         : C:\Program Files (x86)\Exact Audio Copy\FLAC\FLAC.EXE
Additional command line options : -V -8 -T "Date=%year%" -T "Genre=%genre%" -T"COMMENT=Ripped by vinni0809" -8 -V %source%

TOC of the extracted CD

     Track |   Start  |  Length  | Start sector | End sector
    ---------------------------------------------------------
        1  |  0:00.00 |  3:29.22 |         0    |    15696
        2  |  3:29.22 |  4:32.01 |     15697    |    36097
        3  |  8:01.23 |  3:24.50 |     36098    |    51447
        4  | 11:25.73 |  4:46.67 |     51448    |    72964
        5  | 16:12.65 |  4:08.02 |     72965    |    91566
        6  | 20:20.67 |  3:53.51 |     91567    |   109092
        7  | 24:14.43 |  3:37.07 |    109093    |   125374
        8  | 27:51.50 |  3:37.29 |    125375    |   141678
        9  | 31:29.04 |  3:29.65 |    141679    |   157418
       10  | 34:58.69 |  4:06.66 |    157419    |   175934
       11  | 39:05.60 |  4:37.49 |    175935    |   196758
       12  | 43:43.34 |  4:10.28 |    196759    |   215536
       13  | 47:53.62 |  3:58.15 |    215537    |   233401
       14  | 51:52.02 |  5:34.27 |    233402    |   258478
       15  | 57:26.29 |  4:19.47 |    258479    |   277950
       16  | 61:46.01 |  5:09.63 |    277951    |   301188
       17  | 66:55.64 |  4:26.37 |    301189    |   321175
       18  | 71:22.26 |  3:50.71 |    321176    |   338496
       19  | 75:13.22 |  4:15.50 |    338497    |   357671

Range status and errors

Selected range

     Filename F:\vinni0809\Григорий Лепс  - Новые и лучшие песни.wav

     Peak level 100.0 %
     Extraction speed 5.1 X
     Range quality 100.0 %
     Test CRC 8C6FB6D7
     Copy CRC 8C6FB6D7
     Copy OK

No errors occurred

AccurateRip summary

Track  1  not present in database
Track  2  not present in database
Track  3  not present in database
Track  4  not present in database
Track  5  not present in database
Track  6  not present in database
Track  7  not present in database
Track  8  not present in database
Track  9  not present in database
Track 10  not present in database
Track 11  not present in database
Track 12  not present in database
Track 13  not present in database
Track 14  not present in database
Track 15  not present in database
Track 16  not present in database
Track 17  not present in database
Track 18  not present in database
Track 19  not present in database

None of the tracks are present in the AccurateRip database

End of status report
Индексная карта (non-compilant .cue)

Код:

REM GENRE Pop
REM DATE 2018
REM DISCID 0D12A013
REM COMMENT "ExactAudioCopy v1.3"
PERFORMER "Григорий Лепс "
TITLE "Новые и лучшие песни"
REM COMPOSER ""
FILE "Григорий Лепс  - Новые и лучшие песни.flac" WAVE
  TRACK 01 AUDIO
    TITLE "Орлы или вороны (& Максим Фадеев)"
    PERFORMER "Григорий Лепс "
    REM COMPOSER ""
    INDEX 01 00:00:00
  TRACK 02 AUDIO
    TITLE "Рюмка водки на столе"
    PERFORMER "Григорий Лепс "
    REM COMPOSER ""
    INDEX 00 03:27:22
    INDEX 01 03:29:22
  TRACK 03 AUDIO
    TITLE "Разбитая любовь"
    PERFORMER "Григорий Лепс "
    REM COMPOSER ""
    INDEX 00 07:59:23
    INDEX 01 08:01:23
  TRACK 04 AUDIO
    TITLE "Натали"
    PERFORMER "Григорий Лепс "
    REM COMPOSER ""
    INDEX 00 11:23:73
    INDEX 01 11:25:73
  TRACK 05 AUDIO
    TITLE "Снега"
    PERFORMER "Григорий Лепс "
    REM COMPOSER ""
    INDEX 00 16:10:65
    INDEX 01 16:12:65
  TRACK 06 AUDIO
    TITLE "Я поднимаю руки"
    PERFORMER "Григорий Лепс "
    REM COMPOSER ""
    INDEX 00 20:18:67
    INDEX 01 20:20:67
  TRACK 07 AUDIO
    TITLE "Что ж ты натворила"
    PERFORMER "Григорий Лепс "
    REM COMPOSER ""
    INDEX 00 24:12:43
    INDEX 01 24:14:43
  TRACK 08 AUDIO
    TITLE "Уходи по-английски"
    PERFORMER "Григорий Лепс "
    REM COMPOSER ""
    INDEX 00 27:49:50
    INDEX 01 27:51:50
  TRACK 09 AUDIO
    TITLE "Время"
    PERFORMER "Григорий Лепс "
    REM COMPOSER ""
    INDEX 00 31:27:04
    INDEX 01 31:29:04
  TRACK 10 AUDIO
    TITLE "Шелест"
    PERFORMER "Григорий Лепс "
    REM COMPOSER ""
    INDEX 00 34:56:69
    INDEX 01 34:58:69
  TRACK 11 AUDIO
    TITLE "Взрослые игры"
    PERFORMER "Григорий Лепс "
    REM COMPOSER ""
    INDEX 00 39:03:60
    INDEX 01 39:05:60
  TRACK 12 AUDIO
    TITLE "Крыса-ревность"
    PERFORMER "Григорий Лепс "
    REM COMPOSER ""
    INDEX 00 43:41:34
    INDEX 01 43:43:34
  TRACK 13 AUDIO
    TITLE "Я счастливый"
    PERFORMER "Григорий Лепс "
    REM COMPOSER ""
    INDEX 00 47:51:62
    INDEX 01 47:53:62
  TRACK 14 AUDIO
    TITLE "Ну и что"
    PERFORMER "Григорий Лепс "
    REM COMPOSER ""
    INDEX 00 51:50:02
    INDEX 01 51:52:02
  TRACK 15 AUDIO
    TITLE "На заре"
    PERFORMER "Григорий Лепс "
    REM COMPOSER ""
    INDEX 00 57:24:29
    INDEX 01 57:26:29
  TRACK 16 AUDIO
    TITLE "Замерзает Солнце"
    PERFORMER "Григорий Лепс "
    REM COMPOSER ""
    INDEX 00 61:44:01
    INDEX 01 61:46:01
  TRACK 17 AUDIO
    TITLE "Вьюга"
    PERFORMER "Григорий Лепс "
    REM COMPOSER ""
    INDEX 00 66:53:64
    INDEX 01 66:55:64
  TRACK 18 AUDIO
    TITLE "Небо на ладони"
    PERFORMER "Григорий Лепс "
    REM COMPOSER ""
    INDEX 00 71:20:26
    INDEX 01 71:22:26
  TRACK 19 AUDIO
    TITLE "Самый лучший день (Radio Edit)"
    PERFORMER "Григорий Лепс "
    REM COMPOSER ""
    INDEX 00 75:11:22
    INDEX 01 75:13:22


pic
pic
Leps - Novoe i Luchschee - 2018 FLAC.torrent
Трекер: Зарегистрирован

magnet ссылка

 


Скачать .torrent

15 KB

Статус: проверено (by E IL o T IR i X в 14-Янв-19 00:12)
Зарегистрирован: 13-Янв-19 23:48
Скачан: 13 раз
Размер: 678 MB | 
Поблагодарили:
Скачать (Rock, Pop, Chanson, Soft Rock) Григорий Лепс - Новые и лучшие песни - 2018 [FLAC, image +.cue, lossless] торрент
 


Похожие раздачи

Текущее время: 23-Мар 07:45

Часовой пояс: GMT + 3



Вы не можете начинать темы
Вы не можете отвечать на сообщения
Вы не можете редактировать свои сообщения
Вы не можете удалять свои сообщения
Вы не можете голосовать в опросах
Вы не можете прикреплять файлы к сообщениям
Вы не можете скачивать файлы