Loading...
Error
 

Скачать торрент (Synthwave / Synthpop / Electronic) GUNSHIP - Gunship (2015) [FLAC, (tracks+.cue), lossless]

 
Автор Сообщение

Слава2312

post 14-Фев-19 07:59

GUNSHIP - Gunship


pic

Жанр: Synthwave / Synthpop / Electronic
Год издания данного носителя: 2015
Страна-производитель носителя: UK
Лейбл: INgrooves
Каталоговый номер: HITH002CD
Аудио кодек: FLAC
Тип рипа: tracks+.cue
Битрейт аудио: lossless
Продолжительность: 00:57:28
Источник (релизер): what.cd
Полиграфия: нет
Для ознакомления: pic
Треклист:
[4:25] 01. GUNSHIP - The Mountain
[4:08] 02. GUNSHIP - Revel In Your Time
[4:58] 03. GUNSHIP - Tech Noir
[4:13] 04. GUNSHIP - Shadow Fury
[4:02] 05. GUNSHIP - Pink Mist
[3:59] 06. GUNSHIP - Kitsune
[4:47] 07. GUNSHIP - Black Sun On The Horizon
[3:52] 08. GUNSHIP - The Hegemon
[4:39] 09. GUNSHIP - Fly For Your Life
[5:40] 10. GUNSHIP - Maximum Black
[3:30] 11. GUNSHIP - Tech Noir (Carpenter Brut Remix)
[4:11] 12. GUNSHIP - Revel In Your Time (Miami Nights 1984 Remix)
[5:03] 13. GUNSHIP - Black Sun On The Horizon (Makeup And Vanity Set remix)
Отчёт об извлечении

Код:



Exact Audio Copy V1.1 from 23. June 2015

EAC extraction logfile from 4. January 2016, 8:40

GUNSHIP / GUNSHIP

Used drive  : TSSTcorpCDDVDW SE-208GB   Adapter: 1  ID: 2

Read mode               : Secure
Utilize accurate stream : Yes
Defeat audio cache      : Yes
Make use of C2 pointers : No

Read offset correction                      : 6
Overread into Lead-In and Lead-Out          : No
Fill up missing offset samples with silence : Yes
Delete leading and trailing silent blocks   : No
Null samples used in CRC calculations       : Yes
Used interface                              : Native Win32 interface for Win NT & 2000
Gap handling                                : Appended to previous track

Used output format              : User Defined Encoder
Selected bitrate                : 128 kBit/s
Quality                         : High
Add ID3 tag                     : No
Command line compressor         : C:\Program Files (x86)\Exact Audio Copy\Flac\flac.exe
Additional command line options : -8 -V -T "ARTIST=%artist%" -T "TITLE=%title%" -T "ALBUM=%albumtitle%" -T "DATE=%year%" -T "TRACKNUMBER=%tracknr%" -T "GENRE=%genre%" -T "PERFORMER=%albuminterpret%" -T "COMPOSER=%composer%" %haslyrics%--tag-from-file=LYRICS="%lyricsfile%"%haslyrics% -T "ALBUMARTIST=%albumartist%" -T "DISCNUMBER=%cdnumber%" -T "TOTALDISCS=%totalcds%" -T "TOTALTRACKS=%numtracks%" -T "COMMENT=%comment%" %source% -o %dest%

TOC of the extracted CD

     Track |   Start  |  Length  | Start sector | End sector
    ---------------------------------------------------------
        1  |  0:00.00 |  4:24.40 |         0    |    19839   
        2  |  4:24.40 |  4:07.58 |     19840    |    38422   
        3  |  8:32.23 |  4:57.42 |     38423    |    60739   
        4  | 13:29.65 |  4:12.64 |     60740    |    79703   
        5  | 17:42.54 |  4:02.37 |     79704    |    97890   
        6  | 21:45.16 |  3:59.35 |     97891    |   115850   
        7  | 25:44.51 |  4:47.18 |    115851    |   137393   
        8  | 30:31.69 |  3:52.15 |    137394    |   154808   
        9  | 34:24.09 |  4:39.22 |    154809    |   175755   
       10  | 39:03.31 |  5:39.50 |    175756    |   201230   
       11  | 44:43.06 |  3:29.63 |    201231    |   216968   
       12  | 48:12.69 |  4:11.15 |    216969    |   235808   
       13  | 52:24.09 |  5:03.31 |    235809    |   258564   

Track  1

     Filename R:\Rips (temp)\GUNSHIP (2015) GUNSHIP [CD (UK & Europe) HITH002CD] FLAC\01 - The Mountain.wav

     Pre-gap length  0:00:02.00

     Peak level 98.0 %
     Extraction speed 2.7 X
     Track quality 100.0 %
     Test CRC 65C8A0A6
     Copy CRC 65C8A0A6
     Accurately ripped (confidence 1)  [239B6041]  (AR v2)
     Copy OK

Track  2

     Filename R:\Rips (temp)\GUNSHIP (2015) GUNSHIP [CD (UK & Europe) HITH002CD] FLAC\02 - Revel In Your Time.wav

     Peak level 98.0 %
     Extraction speed 3.0 X
     Track quality 100.0 %
     Test CRC 36B4C1B5
     Copy CRC 36B4C1B5
     Accurately ripped (confidence 1)  [6935A6CD]  (AR v2)
     Copy OK

Track  3

     Filename R:\Rips (temp)\GUNSHIP (2015) GUNSHIP [CD (UK & Europe) HITH002CD] FLAC\03 - Tech Noir.wav

     Peak level 98.1 %
     Extraction speed 3.3 X
     Track quality 100.0 %
     Test CRC 7E6C3F13
     Copy CRC 7E6C3F13
     Accurately ripped (confidence 1)  [81E377A8]  (AR v2)
     Copy OK

Track  4

     Filename R:\Rips (temp)\GUNSHIP (2015) GUNSHIP [CD (UK & Europe) HITH002CD] FLAC\04 - Shadow Fury.wav

     Peak level 98.0 %
     Extraction speed 3.5 X
     Track quality 100.0 %
     Test CRC 3F36A11D
     Copy CRC 3F36A11D
     Accurately ripped (confidence 1)  [2637C7D5]  (AR v2)
     Copy OK

Track  5

     Filename R:\Rips (temp)\GUNSHIP (2015) GUNSHIP [CD (UK & Europe) HITH002CD] FLAC\05 - Pink Mist.wav

     Peak level 98.0 %
     Extraction speed 3.7 X
     Track quality 100.0 %
     Test CRC DF827646
     Copy CRC DF827646
     Accurately ripped (confidence 1)  [131104E6]  (AR v2)
     Copy OK

Track  6

     Filename R:\Rips (temp)\GUNSHIP (2015) GUNSHIP [CD (UK & Europe) HITH002CD] FLAC\06 - Kitsune.wav

     Peak level 98.0 %
     Extraction speed 3.9 X
     Track quality 100.0 %
     Test CRC EF486A5F
     Copy CRC EF486A5F
     Accurately ripped (confidence 1)  [226EB6C3]  (AR v2)
     Copy OK

Track  7

     Filename R:\Rips (temp)\GUNSHIP (2015) GUNSHIP [CD (UK & Europe) HITH002CD] FLAC\07 - Black Sun On The Horizon.wav

     Peak level 98.0 %
     Extraction speed 4.2 X
     Track quality 100.0 %
     Test CRC C03801B0
     Copy CRC C03801B0
     Accurately ripped (confidence 1)  [32659720]  (AR v2)
     Copy OK

Track  8

     Filename R:\Rips (temp)\GUNSHIP (2015) GUNSHIP [CD (UK & Europe) HITH002CD] FLAC\08 - The Hegemon.wav

     Peak level 98.0 %
     Extraction speed 4.3 X
     Track quality 100.0 %
     Test CRC 0E761A25
     Copy CRC 0E761A25
     Accurately ripped (confidence 1)  [2E43B952]  (AR v2)
     Copy OK

Track  9

     Filename R:\Rips (temp)\GUNSHIP (2015) GUNSHIP [CD (UK & Europe) HITH002CD] FLAC\09 - Fly For Your Life.wav

     Peak level 98.0 %
     Extraction speed 4.5 X
     Track quality 100.0 %
     Test CRC F93838EF
     Copy CRC F93838EF
     Accurately ripped (confidence 1)  [50FF707F]  (AR v2)
     Copy OK

Track 10

     Filename R:\Rips (temp)\GUNSHIP (2015) GUNSHIP [CD (UK & Europe) HITH002CD] FLAC\10 - Maximum Black.wav

     Peak level 98.0 %
     Extraction speed 4.8 X
     Track quality 100.0 %
     Test CRC C4489AA2
     Copy CRC C4489AA2
     Accurately ripped (confidence 1)  [495E2056]  (AR v2)
     Copy OK

Track 11

     Filename R:\Rips (temp)\GUNSHIP (2015) GUNSHIP [CD (UK & Europe) HITH002CD] FLAC\11 - Tech Noir (Carpenter Brut Remix).wav

     Peak level 84.1 %
     Extraction speed 3.6 X
     Track quality 99.9 %
     Test CRC 15DB97AF
     Copy CRC 15DB97AF
     Accurately ripped (confidence 1)  [3BCC34A8]  (AR v2)
     Copy OK

Track 12

     Filename R:\Rips (temp)\GUNSHIP (2015) GUNSHIP [CD (UK & Europe) HITH002CD] FLAC\12 - Revel In Your Time (Miami Nights 1984 Remix).wav

     Peak level 98.3 %
     Extraction speed 4.8 X
     Track quality 100.0 %
     Test CRC 15CFCCDF
     Copy CRC 15CFCCDF
     Accurately ripped (confidence 1)  [38558013]  (AR v2)
     Copy OK

Track 13

     Filename R:\Rips (temp)\GUNSHIP (2015) GUNSHIP [CD (UK & Europe) HITH002CD] FLAC\13 - Black Sun On The Horizon (Makeup And Vanity Set remix).wav

     Peak level 100.0 %
     Extraction speed 5.0 X
     Track quality 100.0 %
     Test CRC B0F7C28B
     Copy CRC B0F7C28B
     Accurately ripped (confidence 1)  [15340734]  (AR v2)
     Copy OK

All tracks accurately ripped

No errors occurred

End of status report

---- CUETools DB Plugin V2.1.6

[CTDB TOCID: dMJ_WVOzwr8UwzyEIfOptZ70_N4-] found
Submit result: dMJ_WVOzwr8UwzyEIfOptZ70_N4- has been confirmed
Track | CTDB Status
  1   | (12/12) Accurately ripped
  2   | (12/12) Accurately ripped
  3   | (12/12) Accurately ripped
  4   | (12/12) Accurately ripped
  5   | (12/12) Accurately ripped
  6   | (12/12) Accurately ripped
  7   | (12/12) Accurately ripped
  8   | (12/12) Accurately ripped
  9   | (12/12) Accurately ripped
 10   | (12/12) Accurately ripped
 11   | (12/12) Accurately ripped
 12   | (12/12) Accurately ripped
 13   | (12/12) Accurately ripped

==== Log checksum 3BEA883EF07D2BEE3347BFD03D56C73B2FB8840A9E8663AC23EA00107BDA9146 ====

Текст .cue (файл разметки)

Код:



REM GENRE Synthwave
REM DATE 2015
REM DISCID AF0D770D
REM COMMENT "ExactAudioCopy v1.1"
PERFORMER "GUNSHIP"
TITLE "GUNSHIP"
FILE "01 - The Mountain.wav" WAVE
  TRACK 01 AUDIO
    TITLE "The Mountain"
    PERFORMER "GUNSHIP"
    INDEX 01 00:00:00
FILE "02 - Revel In Your Time.wav" WAVE
  TRACK 02 AUDIO
    TITLE "Revel In Your Time"
    PERFORMER "GUNSHIP"
    INDEX 01 00:00:00
FILE "03 - Tech Noir.wav" WAVE
  TRACK 03 AUDIO
    TITLE "Tech Noir"
    PERFORMER "GUNSHIP"
    INDEX 01 00:00:00
FILE "04 - Shadow Fury.wav" WAVE
  TRACK 04 AUDIO
    TITLE "Shadow Fury"
    PERFORMER "GUNSHIP"
    INDEX 01 00:00:00
FILE "05 - Pink Mist.wav" WAVE
  TRACK 05 AUDIO
    TITLE "Pink Mist"
    PERFORMER "GUNSHIP"
    INDEX 01 00:00:00
FILE "06 - Kitsune.wav" WAVE
  TRACK 06 AUDIO
    TITLE "Kitsune"
    PERFORMER "GUNSHIP"
    INDEX 01 00:00:00
FILE "07 - Black Sun On The Horizon.wav" WAVE
  TRACK 07 AUDIO
    TITLE "Black Sun On The Horizon"
    PERFORMER "GUNSHIP"
    INDEX 01 00:00:00
FILE "08 - The Hegemon.wav" WAVE
  TRACK 08 AUDIO
    TITLE "The Hegemon"
    PERFORMER "GUNSHIP"
    INDEX 01 00:00:00
FILE "09 - Fly For Your Life.wav" WAVE
  TRACK 09 AUDIO
    TITLE "Fly For Your Life"
    PERFORMER "GUNSHIP"
    INDEX 01 00:00:00
FILE "10 - Maximum Black.wav" WAVE
  TRACK 10 AUDIO
    TITLE "Maximum Black"
    PERFORMER "GUNSHIP"
    INDEX 01 00:00:00
FILE "11 - Tech Noir (Carpenter Brut Remix).wav" WAVE
  TRACK 11 AUDIO
    TITLE "Tech Noir (Carpenter Brut Remix)"
    PERFORMER "GUNSHIP"
    INDEX 01 00:00:00
FILE "12 - Revel In Your Time (Miami Nights 1984 Remix).wav" WAVE
  TRACK 12 AUDIO
    TITLE "Revel In Your Time (Miami Nights 1984 Remix)"
    PERFORMER "GUNSHIP"
    INDEX 01 00:00:00
FILE "13 - Black Sun On The Horizon (Makeup And Vanity Set remix).wav" WAVE
  TRACK 13 AUDIO
    TITLE "Black Sun On The Horizon (Makeup And Vanity Set remix)"
    PERFORMER "GUNSHIP"
    INDEX 01 00:00:00

AUDIOCHECKER

Код:



AUDIOCHECKER v2.0 beta (build 457) - by Dester
~~~~~~~~~~~~~~~~~~~~~~~~~~~~~~~~~~
-=== НЕ РЕДАКТИРУЙТЕ ЭТОТ ФАЙЛ! ===-

Путь: ...\Gunship - Gunship - 2015 [FLAC]

01 -=- 01 - The Mountain.flac -=- CDDA (99%)
02 -=- 02 - Revel In Your Time.flac -=- CDDA (100%)
03 -=- 03 - Tech Noir.flac -=- CDDA (100%)
04 -=- 04 - Shadow Fury.flac -=- CDDA (100%)
05 -=- 05 - Pink Mist.flac -=- CDDA (100%)
06 -=- 06 - Kitsune.flac -=- CDDA (100%)
07 -=- 07 - Black Sun On The Horizon.flac -=- CDDA (100%)
08 -=- 08 - The Hegemon.flac -=- CDDA (100%)
09 -=- 09 - Fly For Your Life.flac -=- CDDA (100%)
10 -=- 10 - Maximum Black.flac -=- CDDA (100%)
11 -=- 11 - Tech Noir (Carpenter Brut Remix).flac -=- CDDA (100%)
12 -=- 12 - Revel In Your Time (Miami Nights 1984 Remix).flac -=- CDDA (100%)
13 -=- 13 - Black Sun On The Horizon (Makeup And Vanity Set remix).flac -=- CDDA (100%)

Сводка 99,92% CDDA

24420228


pic

Gunship - Gunship (2015) Flac.torrent
Трекер: Зарегистрирован

magnet ссылка

 


Скачать .torrent

17 KB

Статус: проверено (by ilyash_rekviem в 14-Фев-19 08:36)
Зарегистрирован: 14-Фев-19 07:59
Скачан: 30 раз
Размер: 394 MB | 
Поблагодарили:
Скачать (Synthwave / Synthpop / Electronic) GUNSHIP - Gunship (2015) [FLAC, (tracks+.cue), lossless] торрент
 


Похожие раздачи

Текущее время: 25-Апр 02:56

Часовой пояс: GMT + 3



Вы не можете начинать темы
Вы не можете отвечать на сообщения
Вы не можете редактировать свои сообщения
Вы не можете удалять свои сообщения
Вы не можете голосовать в опросах
Вы не можете прикреплять файлы к сообщениям
Вы не можете скачивать файлы