Loading...
Error
 

Скачать торрент (Synthwave / Retrowave / Electronic) The Midnight - Endless Summer (2016) [FLAC, (tracks), lossless]

 
Автор Сообщение

Слава2312

post 14-Фев-19 08:30

The Midnight - Endless Summer


pic

Жанр: Synthwave / Retrowave / Electronic
Год издания данного носителя: 2016
Страна-производитель носителя: USA
Лейбл: Not On Label (The Midnight Self-released)
Каталоговый номер: none
Аудио кодек: FLAC
Тип рипа: tracks+.cue
Битрейт аудио: lossless
Продолжительность: 01:01:09
Источник (релизер): pic
Полиграфия: нет
Треклист:
[6:46] 1. The Midnight - Endless Summer
[5:27] 2. The Midnight - Sunset
[4:53] 3. The Midnight - Daytona
[5:32] 4. The Midnight - Jason (feat. Nikki Flores)
[3:20] 5. The Midnight - Synthetic
[3:49] 6. The Midnight - The Equaliser (Not Alone)
[5:22] 7. The Midnight - The Comeback Kid
[5:17] 8. The Midnight - Vampires
[5:23] 9. The Midnight - Crockett's Revenge
[3:49] 10. The Midnight - Nighthawks
[5:14] 11. The Midnight - Lonely City
[6:19] 12. The Midnight - Memories
AUDIOCHECKER

Код:

AUDIOCHECKER v2.0 beta (build 457) - by Dester
~~~~~~~~~~~~~~~~~~~~~~~~~~~~~~~~~~
-=== НЕ РЕДАКТИРУЙТЕ ЭТОТ ФАЙЛ! ===-

Путь: ...\The Midnight - Endless Summer [2016] Flac

01 -=- 01 Endless Summer.flac -=- CDDA (100%)
02 -=- 02 Sunset.flac -=- CDDA (100%)
03 -=- 03 Daytona.flac -=- CDDA (100%)
04 -=- 04 Jason (feat. Nikki Flores).flac -=- CDDA (100%)
05 -=- 05 Synthetic.flac -=- CDDA (100%)
06 -=- 06 The Equaliser (Not Alone).flac -=- CDDA (100%)
07 -=- 07 The Comeback Kid.flac -=- CDDA (100%)
08 -=- 08 Vampires.flac -=- CDDA (100%)
09 -=- 09 Crockett's Revenge.flac -=- CDDA (100%)
10 -=- 10 Nighthawks.flac -=- ERROR
11 -=- 11 Lonely City.flac -=- ERROR
12 -=- 12 Memories.flac -=- CDDA (100%)

Сводка 100,00% CDDA

266351172

Замер динамического диапазона

Код:

foobar2000 1.4.1 / Замер динамического диапазона (DR) 1.1.1
Дата отчёта:    2019-02-14 09:22:55

--------------------------------------------------------------------------------
Анализ:   The Midnight / Endless Summer
--------------------------------------------------------------------------------

DR         Пики         RMS           Продолжительность трека
--------------------------------------------------------------------------------
DR8       -0.10 дБ   -11.44 дБ      6:46 01-Endless Summer
DR7       -0.09 дБ    -9.31 дБ      5:27 02-Sunset
DR8       -0.10 дБ   -10.82 дБ      4:53 03-Daytona
DR9       -0.09 дБ    -9.92 дБ      5:32 04-Jason (feat. Nikki Flores)
DR10      -0.10 дБ   -11.79 дБ      3:20 05-Synthetic
DR8       -0.05 дБ    -9.12 дБ      3:49 06-The Equaliser (Not Alone)
DR8       -0.08 дБ    -9.56 дБ      5:22 07-The Comeback Kid
DR8       -0.09 дБ    -9.23 дБ      5:17 08-Vampires
DR9       -0.10 дБ   -10.59 дБ      5:23 09-Crockett's Revenge
--------------------------------------------------------------------------------

Количество треков:  9
Реальные значения DR:  DR8

Частота:      44100 Гц
Каналов:      2
Разрядность:     16
Битрейт:      922 кбит/с
Кодек:      FLAC
================================================================================

--------------------------------------------------------------------------------
Анализ:   The Midnight / Endless Summer
--------------------------------------------------------------------------------

DR         Пики         RMS           Продолжительность трека
--------------------------------------------------------------------------------
DR7       -0.09 дБ    -9.75 дБ      3:49 10-Nighthawks
DR8       -0.09 дБ   -10.05 дБ      5:14 11-Lonely City
--------------------------------------------------------------------------------

Количество треков:  2
Реальные значения DR:  DR8

Частота:      44100 Гц
Каналов:      2
Разрядность:     24
Битрейт:      909 кбит/с
Кодек:      FLAC
================================================================================

--------------------------------------------------------------------------------
Статистика для:    12-Memories
Количество сэмплов:  16718325
Продолжительность:  6:19
--------------------------------------------------------------------------------

              Левый              Правый

Пики:                 -0.10 дБ     ---     -0.10 дБ     
Средний RMS:              -11.16 дБ     ---    -11.31 дБ     
DR канала:                9.23 дБ     ---      9.21 дБ     
--------------------------------------------------------------------------------

Реальные значения DR:  DR9

Частота:      44100 Гц
Каналов:      2
Разрядность:     16
Битрейт:      908 кбит/с
Кодек:      FLAC
================================================================================


pic
The Midnight - Endless Summer (2016) Flac.torrent
Трекер: Зарегистрирован

magnet ссылка

 


Скачать .torrent

18 KB

Статус: проверено (by ilyash_rekviem в 14-Фев-19 08:37)
Зарегистрирован: 14-Фев-19 08:30
Скачан: 24 раза
Размер: 430 MB | 
Поблагодарили:
Скачать (Synthwave / Retrowave / Electronic) The Midnight - Endless Summer (2016) [FLAC, (tracks), lossless] торрент
 


Похожие раздачи

Текущее время: 24-Фев 03:56

Часовой пояс: GMT + 3



Вы не можете начинать темы
Вы не можете отвечать на сообщения
Вы не можете редактировать свои сообщения
Вы не можете удалять свои сообщения
Вы не можете голосовать в опросах
Вы не можете прикреплять файлы к сообщениям
Вы не можете скачивать файлы